<?xml version="1.0" standalone="no"?>
<!DOCTYPE svg PUBLIC "-//W3C//DTD SVG 1.1//EN" "http://www.w3.org/Graphics/SVG/1.1/DTD/svg11.dtd" >
<svg xmlns="http://www.w3.org/2000/svg">
<metadata>Generated by IcoMoon</metadata>
<defs>
<font id="m2icon" horiz-adv-x="1024">
<font-face units-per-em="1024" ascent="960" descent="-64" />
<missing-glyph horiz-adv-x="1024" />
<glyph unicode="&#x20;" horiz-adv-x="512" d="" />
<glyph unicode="&#xe900;" glyph-name="approximate" d="M0 558.933c0 110.933 42.667 209.067 115.2 281.6s170.667 115.2 281.6 115.2c110.933 0 209.067-42.667 281.6-115.2s115.2-170.667 115.2-281.6c0-110.933-42.667-209.067-115.2-281.6s-170.667-115.2-281.6-115.2c-110.933 0-209.067 42.667-281.6 115.2s-115.2 170.667-115.2 281.6zM179.2 780.8c-55.467-55.467-93.867-136.533-93.867-221.867s34.133-166.4 93.867-221.867c55.467-55.467 136.533-93.867 221.867-93.867s166.4 34.133 221.867 93.867c55.467 55.467 93.867 136.533 93.867 221.867s-34.133 166.4-93.867 221.867c-55.467 55.467-136.533 93.867-221.867 93.867s-166.4-34.133-221.867-93.867zM618.667 264.533c-17.067 17.067-17.067 42.667 0 59.733s42.667 17.067 59.733 0l332.8-315.733c17.067-17.067 17.067-42.667 0-59.733s-42.667-17.067-59.733 0l-332.8 315.733zM426.667 716.8v-298.667h-55.467v298.667zM550.4 541.867h-298.667v55.467h298.667z" />
<glyph unicode="&#xe901;" glyph-name="arrowdirection" d="M1024 499.2v-110.933h-930.133v110.933zM371.2 76.8l-371.2 371.2 366.933 366.933 81.067-81.067-290.133-285.867 290.133-294.4z" />
<glyph unicode="&#xe902;" glyph-name="distance" d="M0 558.933c0 110.933 42.667 209.067 115.2 281.6s170.667 115.2 281.6 115.2c110.933 0 209.067-42.667 281.6-115.2s115.2-170.667 115.2-281.6c0-110.933-42.667-209.067-115.2-281.6s-170.667-115.2-281.6-115.2c-110.933 0-209.067 42.667-281.6 115.2s-115.2 170.667-115.2 281.6zM179.2 780.8c-55.467-55.467-93.867-136.533-93.867-221.867s34.133-166.4 93.867-221.867c55.467-55.467 136.533-93.867 221.867-93.867s166.4 34.133 221.867 93.867c55.467 55.467 93.867 136.533 93.867 221.867s-34.133 166.4-93.867 221.867c-55.467 55.467-136.533 93.867-221.867 93.867s-166.4-34.133-221.867-93.867zM618.667 264.533c-17.067 17.067-17.067 42.667 0 59.733s42.667 17.067 59.733 0l332.8-315.733c17.067-17.067 17.067-42.667 0-59.733s-42.667-17.067-59.733 0l-332.8 315.733zM550.4 541.867h-298.667v55.467h298.667z" />
<glyph unicode="&#xe903;" glyph-name="move" d="M345.6 750.933l166.4 209.067 166.4-209.067h-132.267v-273.067h268.8v136.533l209.067-166.4-209.067-166.4v136.533h-268.8v-273.067h132.267l-166.4-209.067-170.667 209.067h140.8v273.067h-273.067v-136.533l-209.067 166.4 209.067 170.667v-140.8h273.067v273.067z" />
<glyph unicode="&#xe904;" glyph-name="overview" horiz-adv-x="1229" d="M655.36-64h-76.8v593.92h76.8zM358.4 345.6l256 271.36 256-266.24-56.32-61.44-199.68 209.92-199.68-209.92zM1059.84 622.080c-35.84 102.4-128 174.080-235.52 174.080-25.6 0-46.080-5.12-71.68-10.24-61.44 107.52-168.96 174.080-291.84 174.080-189.44 0-343.040-158.72-343.040-358.4-66.56-40.96-117.76-122.88-117.76-215.040 0-133.12 102.4-245.76 230.4-245.76h184.32v81.92h-184.32c-87.040 0-153.6 71.68-153.6 163.84 0 76.8 51.2 143.36 117.76 158.72 0 15.36-5.12 30.72-5.12 46.080 0 158.72 117.76 286.72 266.24 286.72 122.88 0 225.28-87.040 256-204.8 30.72 25.6 66.56 40.96 107.52 40.96 87.040 0 163.84-71.68 174.080-163.84v0c87.040 0 153.6-71.68 153.6-163.84s-66.56-163.84-153.6-163.84h-184.32v-81.92h184.32c128 0 230.4 112.64 230.4 245.76 0 112.64-71.68 209.92-168.96 235.52z" />
<glyph unicode="&#xe905;" glyph-name="refresh" d="M264.533 896c38.4 21.333 76.8 38.4 119.467 46.933 42.667 12.8 85.333 17.067 128 17.067 140.8 0 268.8-55.467 362.667-149.333s149.333-221.867 149.333-362.667c0-140.8-55.467-268.8-149.333-362.667s-221.867-149.333-362.667-149.333c-140.8 0-268.8 55.467-362.667 149.333s-149.333 221.867-149.333 362.667h85.333c0-119.467 46.933-226.133 123.733-302.933s183.467-123.733 302.933-123.733c119.467 0 226.133 46.933 302.933 123.733s123.733 183.467 123.733 302.933c0 119.467-46.933 226.133-123.733 302.933s-183.467 123.733-302.933 123.733c-38.4 0-72.533-4.267-106.667-12.8s-68.267-21.333-102.4-38.4l-42.667 72.533zM371.2 742.4l-260.267-21.333 110.933 238.933z" />
<glyph unicode="&#xe906;" glyph-name="accept" d="M512 960c140.8 0 268.8-55.467 362.667-149.333s149.333-221.867 149.333-362.667c0-140.8-55.467-268.8-149.333-362.667s-221.867-149.333-362.667-149.333c-140.8 0-268.8 55.467-362.667 149.333s-149.333 221.867-149.333 362.667c0 140.8 55.467 268.8 149.333 362.667s221.867 149.333 362.667 149.333zM814.933 750.933c-76.8 76.8-183.467 123.733-302.933 123.733s-226.133-46.933-302.933-123.733c-76.8-76.8-123.733-183.467-123.733-302.933s46.933-226.133 123.733-302.933c76.8-76.8 183.467-123.733 302.933-123.733s226.133 46.933 302.933 123.733c76.8 76.8 123.733 183.467 123.733 302.933s-46.933 226.133-123.733 302.933zM512 341.333l149.333 307.2 64-59.733-166.4-349.867h-93.867l-132.267 290.133 59.733 68.267z" />
<glyph unicode="&#xe907;" glyph-name="access" d="M512 960c141.606 0 269.606-57.449 361.827-150.173 92.724-92.22 150.173-220.22 150.173-361.827s-57.449-269.606-150.173-361.827c-92.22-92.724-220.22-150.173-361.827-150.173s-269.606 57.449-361.827 150.173c-92.724 92.22-150.173 220.22-150.173 361.827s57.449 269.606 150.173 361.827c92.22 92.724 220.22 150.173 361.827 150.173zM813.858 749.858c-77.606 77.102-183.937 124.976-301.858 124.976s-224.756-47.874-301.858-124.976c-77.102-77.102-124.976-183.937-124.976-301.858s47.874-224.252 124.976-301.858c77.102-77.102 183.937-124.976 301.858-124.976s224.252 47.874 301.858 124.976c77.102 77.606 124.976 183.937 124.976 301.858s-47.874 224.756-124.976 301.858zM512 733.732c48.378 0 92.22-19.654 123.969-51.402 31.748-31.244 50.898-75.087 50.898-123.465s-19.15-92.22-50.898-123.969c-31.748-31.748-75.591-51.402-123.969-51.402s-92.22 19.654-123.969 51.402c-31.748 31.748-50.898 75.591-50.898 123.969s19.15 92.22 50.898 123.465c31.748 31.748 75.591 51.402 123.969 51.402zM575.496 622.362c-16.126 16.126-38.803 26.205-63.496 26.205s-47.37-10.079-63.496-26.205c-16.126-16.126-26.205-38.803-26.205-63.496s10.079-47.37 26.205-63.496c16.126-16.126 38.803-26.205 63.496-26.205s47.37 10.079 63.496 26.205c16.126 16.126 26.205 38.803 26.205 63.496s-10.079 47.37-26.205 63.496zM469.165 431.37h85.669v-260.535h-85.669z" />
<glyph unicode="&#xe908;" glyph-name="add" d="M750.362 239.874v-303.874h-750.362v1024h750.362v-307.906h-85.165v222.236h-580.031v-852.661h580.031v218.205zM170.835 789.165h408.189v-85.669h-408.189zM170.835 622.866h408.693v-85.669h-408.693zM938.835 448.504c0 47.37-19.15 90.205-50.394 120.945-30.74 30.74-73.575 49.89-120.945 49.89-46.866 0-89.701-19.15-120.441-49.89-31.244-30.74-50.394-73.575-50.394-120.945s19.15-90.205 50.394-120.945c30.74-30.74 73.575-49.89 120.441-49.89 47.37 0 90.205 19.15 120.945 49.89 31.244 30.74 50.394 73.575 50.394 120.945zM948.913 629.921c46.362-46.362 75.087-110.866 75.087-181.417s-28.724-135.055-75.087-181.417c-46.362-46.362-110.362-75.087-181.417-75.087-70.551 0-134.551 28.724-180.913 75.087s-75.087 110.866-75.087 181.417c0 70.551 28.724 135.055 75.087 181.417s110.362 75.087 180.913 75.087c71.055 0 135.055-28.724 181.417-75.087zM810.331 562.898v-229.795h-85.165v229.795zM652.094 490.835h230.299v-85.669h-230.299z" />
<glyph unicode="&#xe909;" glyph-name="adddoc" d="M0 21.333h85.333v-85.333h-85.333v85.333zM170.667 21.333h853.333v-85.333h-853.333v85.333zM0 192h85.333v-85.333h-85.333v85.333zM170.667 192h853.333v-85.333h-853.333v85.333zM0 362.667h85.333v-85.333h-85.333v85.333zM170.667 362.667h853.333v-85.333h-853.333v85.333zM0 533.333h85.333v-85.333h-85.333v85.333zM170.667 533.333h853.333v-85.333h-853.333v85.333zM0 704h85.333v-85.333h-85.333v85.333zM170.667 704h123.733v-85.333h-123.733v85.333zM729.6 704h294.4v-85.333h-294.4v85.333zM512 960c68.267 0 132.267-29.867 179.2-72.533 46.933-46.933 72.533-110.933 72.533-179.2s-29.867-132.267-72.533-179.2c-46.933-46.933-110.933-72.533-179.2-72.533s-132.267 29.867-179.2 72.533c-46.933 46.933-72.533 110.933-72.533 179.2s29.867 132.267 72.533 179.2c46.933 46.933 110.933 72.533 179.2 72.533zM631.467 823.467c-29.867 29.867-72.533 51.2-119.467 51.2s-89.6-17.067-119.467-51.2c-29.867-29.867-51.2-72.533-51.2-119.467s17.067-89.6 51.2-119.467c29.867-29.867 72.533-51.2 119.467-51.2s89.6 17.067 119.467 51.2c29.867 29.867 51.2 72.533 51.2 119.467s-17.067 89.6-51.2 119.467zM396.8 750.933h230.4v-85.333h-230.4zM469.333 588.8v234.667h85.333v-234.667z" />
<glyph unicode="&#xe90a;" glyph-name="addlist" d="M938.331 448c0 117.921-47.37 224.252-124.976 301.354-77.102 77.606-183.433 124.976-301.354 124.976s-224.252-47.37-301.354-124.976c-77.606-77.102-124.976-183.433-124.976-301.354s47.37-224.252 124.976-301.354c77.102-77.606 183.433-124.976 301.354-124.976s224.252 47.37 301.354 124.976c77.606 77.102 124.976 183.433 124.976 301.354zM873.827 809.827c92.724-92.724 150.173-220.724 150.173-361.827s-57.449-269.102-150.173-361.827c-92.724-92.724-220.724-150.173-361.827-150.173s-269.102 57.449-361.827 150.173c-92.724 92.724-150.173 220.724-150.173 361.827s57.449 269.102 150.173 361.827c92.724 92.724 220.724 150.173 361.827 150.173s269.102-57.449 361.827-150.173zM170.331 411.213v73.575c0 26.709 11.087 50.394 28.724 68.031v0c17.638 17.638 41.323 28.724 68.031 28.724h111.37v111.37c0 26.709 11.087 50.394 28.724 68.031v0c17.638 17.638 41.323 28.724 68.031 28.724h73.575c26.709 0 50.394-11.087 68.031-28.724v0c17.638-17.638 28.724-41.323 28.724-68.031v-111.37h111.37c26.709 0 50.394-11.087 68.031-28.724v0c17.638-17.638 28.724-41.323 28.724-68.031v-73.575c0-26.709-11.087-50.394-28.724-68.031v0c-17.638-17.638-41.323-28.724-68.031-28.724h-111.37v-111.37c0-26.709-11.087-50.394-28.724-68.031v0c-17.638-17.638-41.323-28.724-68.031-28.724h-73.575c-26.709 0-50.394 11.087-68.031 28.724v0c-17.638 17.638-28.724 41.323-28.724 68.031v111.37h-111.37c-26.709 0-50.394 11.087-68.031 28.724v0c-17.638 17.638-28.724 41.323-28.724 68.031zM256 484.787v-73.575c0-3.024 1.008-6.047 3.024-8.063v0c2.016-2.016 5.039-3.024 8.063-3.024h197.039v-197.039c0-3.024 1.008-6.047 3.024-8.063v0c2.016-2.016 5.039-3.024 8.063-3.024h73.575c3.024 0 6.047 1.008 8.063 3.024v0c2.016 2.016 3.024 5.039 3.024 8.063v197.039h197.039c3.024 0 6.047 1.008 8.063 3.024v0c2.016 2.016 3.024 5.039 3.024 8.063v73.575c0 3.024-1.008 6.047-3.024 8.063v0c-2.016 2.016-5.039 3.024-8.063 3.024h-197.039v197.039c0 3.024-1.008 6.047-3.024 8.063v0c-2.016 2.016-5.039 3.024-8.063 3.024h-73.575c-3.024 0-6.047-1.008-8.063-3.024v0c-2.016-2.016-3.024-5.039-3.024-8.063v-197.039h-197.039c-3.024 0-6.047-1.008-8.063-3.024v0c-2.016-2.016-3.024-5.039-3.024-8.063z" />
<glyph unicode="&#xe90b;" glyph-name="addmenu" d="M512 960c-282.709 0-512-229.291-512-512s229.291-512 512-512c282.709 0 512 229.291 512 512s-229.291 512-512 512zM503.433 819.402h17.134c37.291 0 68.031-30.74 68.031-68.535v-226.268h226.268c37.795 0 68.535-30.74 68.535-68.031v-17.134c0-37.291-30.74-68.031-68.535-68.031h-226.268v-226.268c0-37.795-30.74-68.535-68.031-68.535h-17.134c-37.291 0-68.031 30.74-68.031 68.535v226.268h-226.268c-37.795 0-68.535 30.74-68.535 68.031v17.134c0 37.291 30.74 68.031 68.535 68.031h226.268v226.268c0 37.795 30.74 68.535 68.031 68.535z" />
<glyph unicode="&#xe90c;" glyph-name="alarm" d="M512 797.732c110.362 0 210.142-44.85 282.709-117.417 72.567-72.063 117.417-172.346 117.417-282.709s-44.85-210.142-117.417-282.709c-72.567-72.567-172.346-117.417-282.709-117.417s-210.646 44.85-282.709 117.417c-72.567 72.567-117.417 172.346-117.417 282.709s44.85 210.646 117.417 282.709c72.063 72.567 172.346 117.417 282.709 117.417zM734.236 619.843c-56.945 56.945-135.559 92.22-222.236 92.22s-165.795-35.276-222.236-92.22c-56.945-56.441-92.22-135.559-92.22-222.236s35.276-165.291 92.22-222.236c56.441-56.945 135.559-92.22 222.236-92.22s165.291 35.276 222.236 92.22c56.945 56.945 92.22 135.559 92.22 222.236s-35.276 165.795-92.22 222.236zM260.031 132.535c13.606 19.15 40.315 23.685 59.465 10.079s23.685-39.811 10.079-58.961l-91.213-128.504c-13.606-19.15-40.315-23.685-59.465-10.079s-23.685 40.315-10.079 59.465l91.213 128zM236.346 958.992c27.213 0 53.921-5.039 78.614-13.606 25.197-9.071 48.882-22.677 69.543-39.307l36.787-30.236-34.268-33.26c-42.331-41.323-88.189-86.677-133.543-133.543-44.346-45.354-89.197-92.22-131.528-138.583l-32.756-35.276-31.244 36.283c-17.638 21.165-32.252 44.85-41.827 71.559-9.575 25.197-14.614 52.913-14.614 81.134 0 65.008 26.205 123.465 69.039 165.795 42.331 42.835 100.787 69.039 165.795 69.039zM286.236 864.756c-15.118 5.543-32.252 8.567-49.89 8.567-41.323 0-78.614-16.63-105.827-43.339-26.709-27.213-43.339-64.504-43.339-105.827 0-18.142 3.024-35.78 9.071-51.906l1.008-3.024c30.74 32.756 62.992 66.016 95.244 99.276s64 65.512 95.244 95.748l-1.512 0.504zM787.654 873.323c-17.638 0-34.772-3.024-49.89-8.567l-1.512-0.504c31.244-30.236 62.992-62.488 95.244-95.748s64.504-66.52 95.244-99.276l1.008 3.024c6.047 16.126 9.071 33.764 9.071 51.906 0 41.323-16.63 78.614-43.339 105.827-27.213 26.709-64.504 43.339-105.827 43.339zM709.039 945.386c24.693 8.567 51.402 13.606 78.614 13.606 65.008 0 123.465-26.205 165.795-69.039 42.835-42.331 69.039-100.787 69.039-165.795 0-28.22-5.039-55.937-14.614-81.134-9.575-26.709-24.189-50.394-41.827-71.559l-31.244-36.283-32.756 35.276c-42.331 46.362-87.181 93.228-131.528 138.583-45.354 46.866-91.213 92.22-133.543 133.543l-34.268 33.26 36.787 30.236c20.661 16.63 44.346 30.236 69.543 39.307zM469.165 616.315c0 23.685 19.15 42.835 42.835 42.835s42.835-19.15 42.835-42.835v-180.913h116.409c23.181 0 42.331-19.15 42.331-42.835s-19.15-42.835-42.331-42.835h-202.079v266.583zM696.441 83.654c-13.606 19.15-9.071 45.354 10.079 58.961s45.354 9.071 59.465-10.079l90.709-128c13.606-19.15 9.071-45.858-10.079-59.465s-45.354-9.071-58.961 10.079l-91.213 128.504z" />
<glyph unicode="&#xe90d;" glyph-name="auction" d="M816.378 280.693c-3.024 17.134-1.008 31.244 5.039 43.339v0c6.551 12.598 15.118 21.165 25.197 27.717l0.504 0.504c24.189 15.118 52.913 37.291 72.567 60.976v0c11.087 13.102 18.646 25.701 18.646 34.772s-7.055 21.165-18.142 33.764c-19.654 23.685-49.386 46.362-73.575 62.488v0c-30.236 20.157-36.283 41.827-30.236 72.567v0.504c6.047 27.717 11.087 64 8.567 94.74-1.512 17.134-5.039 31.244-11.087 37.795-6.551 6.551-20.661 9.575-38.299 11.087-30.74 2.52-66.52-2.016-93.732-8.063l-0.504-0.504c-16.126-3.024-29.228-2.52-42.331 3.024-13.606 5.543-23.181 14.614-31.748 28.22-15.118 24.189-37.291 52.409-60.472 72.063v0c-13.102 11.087-25.701 18.646-34.772 18.646s-21.669-7.559-34.772-18.646v0c-23.685-19.654-45.858-48.378-60.976-72.567v0c-7.559-11.591-16.63-20.157-29.228-26.205-12.598-5.543-26.205-7.559-42.331-4.535h-0.504c-25.197 4.535-56.945 9.071-85.165 8.567-22.173-0.504-40.819-3.528-48.882-11.087-6.047-6.047-9.071-19.654-10.583-36.283-2.52-31.244 2.52-68.535 8.063-96.756v0c2.52-13.606 1.512-27.213-4.031-40.819-5.039-11.591-13.102-22.173-24.693-30.74v0c-21.165-15.622-46.866-35.276-66.52-55.433-15.622-16.126-26.709-31.244-26.709-41.827 0-11.087 11.087-26.205 26.205-42.331 20.157-20.661 45.354-39.811 66.016-54.425 12.094-8.063 20.157-18.646 25.701-30.74 5.039-12.598 6.551-26.205 4.031-39.811v-0.504c-4.535-25.197-9.071-56.945-8.567-85.165 0.504-22.173 3.528-40.819 11.087-48.378 6.551-6.551 20.661-10.079 38.299-11.591 30.74-2.52 66.52 2.016 93.732 8.063l0.504 0.504c16.126 3.024 29.228 2.52 42.331-3.024 13.606-5.543 23.181-14.614 31.748-28.22 15.118-23.685 37.291-52.409 60.472-72.063v0c13.102-11.087 25.701-18.646 34.772-18.646s21.669 7.559 34.772 18.646v0c23.685 19.654 45.858 48.378 60.976 72.567v0c7.559 11.591 16.63 20.157 29.228 26.205s26.205 7.559 42.331 4.535h0.504c25.197-4.535 56.945-9.071 85.165-8.567 22.173 0.504 40.819 3.528 48.882 11.591 7.559 7.559 10.583 26.205 11.087 48.378 0.504 27.717-4.031 59.969-8.567 85.165v0.504zM984.693 358.299c-23.685-28.22-55.433-53.921-83.15-72.063 4.535-27.213 8.567-60.472 8.063-92.724-0.504-41.827-9.575-81.638-35.276-107.339s-65.512-35.276-107.339-35.78c-32.252-1.008-65.512 3.024-93.228 8.063-18.142-27.717-43.843-59.465-72.063-83.15v0c-27.213-23.181-57.953-39.307-89.701-39.307s-62.488 16.126-89.701 39.307v0c-28.22 23.685-53.417 55.433-72.063 82.646-32.756-6.551-73.071-11.087-108.85-7.559-35.78 3.024-69.039 13.102-91.717 35.78-25.701 25.701-34.772 65.512-35.78 107.339-0.504 31.748 3.528 65.512 8.567 93.228-23.181 16.126-49.89 37.291-72.063 59.969-28.724 30.236-50.394 65.008-50.394 101.291 0 36.787 22.173 71.055 50.898 100.787 22.677 23.181 48.882 43.843 71.559 60.472-6.047 32.756-10.583 74.079-7.559 110.866 2.52 35.276 12.598 67.528 34.772 89.701l0.504 0.504c25.701 25.701 65.512 34.772 106.835 35.78 32.252 0.504 65.512-3.528 93.228-8.567 18.142 27.717 43.843 59.465 72.063 83.15v0c27.213 23.181 57.953 39.307 89.701 39.307s62.488-16.126 89.701-39.307v0c28.22-23.685 53.417-55.433 72.063-82.646 32.252 6.551 72.567 11.087 108.346 8.063 36.283-3.024 69.039-13.606 91.717-35.78l0.504-0.504c22.173-22.173 32.252-55.433 35.276-91.213 3.024-36.283-1.512-76.598-7.559-109.354 27.213-18.646 59.465-44.346 83.15-72.567 22.677-27.213 38.803-57.449 38.803-88.693 0-31.748-16.126-62.488-39.307-89.701v0zM451.528 654.614c0 9.071-3.528 16.63-9.071 22.677v0c-5.543 5.543-13.606 9.071-22.677 9.071s-17.134-3.528-22.677-9.071v0c-5.543-5.543-9.071-13.606-9.071-22.677s3.528-17.134 9.071-22.677v0c6.047-5.543 14.11-9.071 22.677-9.071 9.071 0 16.63 3.528 22.677 9.071 5.543 6.047 9.071 14.11 9.071 22.677zM502.425 737.26l0.504 0.504c21.165-21.669 34.268-50.898 34.268-83.15s-13.102-61.48-34.268-83.15c-21.669-21.165-50.898-34.268-83.15-34.268s-61.48 13.102-83.15 34.268l0.504 0.504c-21.669 21.165-34.772 50.394-34.772 82.646s13.102 61.48 34.268 82.646l0.504 0.504c21.165 21.165 50.394 34.268 82.646 34.268s61.48-13.102 82.646-34.772zM626.394 233.323c0 9.071-3.528 17.134-9.071 22.677v0c-6.047 5.543-13.606 9.071-22.677 9.071-8.567 0-16.63-3.528-22.677-9.071-5.543-6.047-9.071-13.606-9.071-22.677 0-8.567 3.528-16.63 9.071-22.677v0c5.543-5.543 13.606-9.071 22.677-9.071s17.134 3.528 22.677 9.071v0c5.543 5.543 9.071 13.606 9.071 22.677zM677.291 315.969c21.669-21.165 34.772-50.394 34.772-82.646s-13.102-61.48-34.268-82.646l-0.504-0.504c-21.165-21.165-50.394-34.268-82.646-34.268s-61.48 13.102-82.646 34.772l-0.504-0.504c-21.165 21.669-34.268 50.898-34.268 83.15s13.102 61.48 34.268 83.15c21.669 21.165 50.898 34.268 83.15 34.268s61.48-13.102 83.15-34.268l-0.504-0.504zM755.906 631.433l-60.472 60.472-427.339-427.339 60.472-60.472z" />
<glyph unicode="&#xe90e;" glyph-name="backlist" d="M936.819 447.496c0 23.685 19.15 42.835 42.835 42.835s42.835-19.15 42.835-42.835c0-140.598-56.945-268.094-149.165-360.315s-219.717-149.165-360.315-149.165c-100.283 0-194.016 29.228-273.134 79.622-60.976 38.803-112.882 90.205-152.693 150.677l0.504-128c0.504-23.181-18.646-42.331-42.331-42.331-23.181-0.504-42.331 18.646-42.331 42.331l-1.512 271.118h277.165c23.685 0 42.835-19.15 42.835-42.835s-19.15-42.835-42.835-42.835h-127.496c33.764-54.929 80.126-101.795 134.551-136.567 65.512-41.323 143.622-65.512 227.276-65.512 117.417 0 223.244 47.37 299.843 123.969s123.969 182.425 123.969 299.843zM299.843 959.496h426.331v-85.165h-426.331zM299.843 788.661h426.331v-85.165h-426.331zM299.843 618.331h426.331v-85.669h-426.331z" />
<glyph unicode="&#xe90f;" glyph-name="backmap" d="M936.819 444.976c0 23.685 19.15 42.835 42.835 42.835s42.835-19.15 42.835-42.835c0-140.598-56.945-268.094-149.165-360.315s-219.717-149.165-360.315-149.165c-100.283 0-194.016 29.228-273.134 79.622-60.976 38.803-112.882 90.205-152.693 150.173l0.504-127.496c0.504-23.181-18.646-42.331-42.331-42.331-23.181 0-42.331 18.646-42.331 42.331l-1.512 271.118h277.165c23.685 0 42.835-19.15 42.835-42.835s-19.15-42.835-42.835-42.835h-127.496c33.764-54.929 79.622-101.795 134.047-136.567 65.512-41.323 144.126-65.512 227.78-65.512 117.417 0 223.244 47.37 299.843 123.969s123.969 182.425 123.969 299.843zM512 960.504c60.976 0 115.906-24.693 155.717-65.008 40.315-39.811 65.008-94.74 65.008-155.717 0-95.244-91.717-267.087-156.22-388.535-10.079-18.646-19.15-35.78-26.709-50.394l-38.299-73.575-37.291 74.079c-8.567 16.63-22.173 42.835-36.787 71.055-62.992 118.929-146.142 277.165-146.142 367.37 0 60.976 24.693 115.906 65.008 155.717 39.811 40.315 94.74 65.008 155.717 65.008zM607.748 835.528c-24.693 24.189-58.457 39.307-95.748 39.307s-71.055-15.118-95.748-39.307c-24.189-24.693-39.307-58.457-39.307-95.748 0-69.543 77.102-216.693 135.559-327.559 59.465 111.37 134.551 257.008 134.551 327.559 0 37.291-15.118 71.055-39.307 95.748zM558.362 728.189c0 25.701-20.661 46.362-46.362 46.362s-46.362-20.661-46.362-46.362c0-25.701 20.661-46.362 46.362-46.362s46.362 20.661 46.362 46.362z" />
<glyph unicode="&#xe910;" glyph-name="backplan" d="M936.819 447.496c0 23.685 19.15 42.835 42.835 42.835s42.835-19.15 42.835-42.835c0-140.598-56.945-268.094-149.165-360.315s-219.717-149.165-360.315-149.165c-100.283 0-194.016 29.228-273.134 79.622-60.976 38.803-112.882 90.205-152.693 150.173l0.504-127.496c0.504-23.181-18.646-42.331-42.331-42.331-23.181 0-42.331 18.646-42.331 42.331l-1.512 271.118h277.165c23.685 0 42.835-19.15 42.835-42.835s-19.15-42.835-42.835-42.835h-127.496c33.764-54.929 79.622-101.795 134.047-136.567 65.512-41.323 144.126-65.512 227.78-65.512 117.417 0 223.244 47.37 299.843 123.969s123.969 182.425 123.969 299.843zM341.165 957.984h384.504v-255.496l-427.843 2.016 1.008 253.48h42.331zM640 872.315h-256.504v-83.15l256.504-1.008v84.157zM341.165 788.157h208.63l1.008-257.512-252.976 2.016 1.008 255.496h42.331zM465.134 702.488h-81.638v-85.165l81.638-1.008v86.173z" />
<glyph unicode="&#xe911;" glyph-name="backshahmatka" d="M936.819 425.323c0 23.685 19.15 42.835 42.835 42.835s42.835-19.15 42.835-42.835c0-140.598-56.945-268.094-149.165-360.315s-219.717-149.165-360.315-149.165c-100.283 0-194.016 29.228-273.134 79.622-60.976 38.803-112.882 90.205-152.693 150.677l0.504-128c0.504-23.181-18.646-42.331-42.331-42.331-23.181-0.504-42.331 18.646-42.331 42.331l-1.512 271.118h277.165c23.685 0 42.835-19.15 42.835-42.835s-19.15-42.835-42.835-42.835h-127.496c33.764-54.929 80.126-101.795 134.551-136.567 65.512-41.323 143.622-65.512 227.276-65.512 116.913 0 223.244 47.37 299.843 123.969s123.969 182.929 123.969 299.843zM299.843 937.323h85.165v-85.165h-85.165v85.165zM470.173 937.323h85.165v-85.165h-85.165v85.165zM641.008 937.323h85.165v-85.165h-85.165v85.165zM299.843 766.488h85.165v-85.165h-85.165v85.165zM470.173 766.488h85.165v-85.165h-85.165v85.165zM641.008 766.488h85.165v-85.165h-85.165v85.165zM299.843 596.157h85.165v-85.165h-85.165v85.165zM470.173 596.157h85.165v-85.165h-85.165v85.165zM641.008 596.157h85.165v-85.165h-85.165v85.165z" />
<glyph unicode="&#xe912;" glyph-name="banks" d="M288.252 492.85v-333.102h-85.669v333.102zM466.646 492.85v-333.102h-85.669v333.102zM646.047 492.85v-333.102h-85.669v333.102zM824.441 492.85v-333.102h-85.669v333.102zM85.669 165.291h853.165v-85.165h-853.165zM0.504 0h1022.992v-85.165h-1022.992zM3.024 545.26l509.48 393.575 510.992-392.567-56.441-59.969-110.866 84.157-1.512 1.512-342.677 260.535-340.157-261.543 684.346-0.504 110.866-84.157h-905.071z" />
<glyph unicode="&#xe913;" glyph-name="bell" d="M17.638 509.984l556.346-556.85c38.299-38.299 104.819-0.504 97.26 64.504-14.11 122.457 67.528 230.299 195.528 342.173 97.764 85.669 120.945 207.622 74.079 343.685-1.008 3.528-2.52 7.055-5.039 11.591 18.142 5.543 35.276 15.622 49.386 30.236 48.882 48.378 48.882 127.496 0 176.378-48.378 48.378-127.496 48.378-176.378 0-14.11-14.614-24.189-31.244-30.236-49.386-2.016 2.016-8.567 3.528-11.087 4.535-135.559 46.362-258.016 23.685-343.181-74.079-111.874-128-220.22-210.142-342.677-195.528-64.504 7.559-102.299-59.465-64-97.26zM496.378 764.976c-9.575-7.055-23.181-5.039-30.236 4.031-7.055 9.575-5.039 23.181 4.535 30.236 38.299 28.724 80.63 46.866 126.992 54.929 45.858 7.559 95.244 5.039 148.661-8.063 11.591-3.024 18.646-14.11 15.622-25.701s-14.11-18.142-25.701-15.622c-47.37 11.591-91.213 14.11-131.528 7.055-39.307-6.551-75.591-22.173-108.346-46.866zM927.748 864.252c17.134-17.134 17.134-44.346 0-61.48-16.63-17.134-44.346-17.134-61.48 0-16.63 17.134-16.63 44.346 0 61.48 17.134 16.63 44.85 16.63 61.48 0zM377.449 117.921c-1.008-1.008-2.016-2.016-3.528-3.024-53.921-54.425-141.606-54.425-195.528 0-53.921 53.921-53.921 141.606 0 195.528 1.008 1.008 2.016 2.016 3.528 3.024l195.528-195.528z" />
<glyph unicode="&#xe914;" glyph-name="booked" d="M511.496 960.504c90.709 0 173.354-36.787 232.819-96.756 59.465-59.465 96.252-141.606 96.252-232.315v0-24.189c0-33.764 0.504-87.685 0-97.26l-1.512-40.315-40.315-0.504c-76.598-1.512-251.465-1.008-398.11 0-47.37 0-90.709 0-175.874 0h-39.307l-3.024 39.811c-0.504 9.071 0 53.417 0.504 87.685 0 7.055 0 13.606 0 34.772 0 90.709 36.787 173.354 96.252 232.819s141.606 96.252 232.315 96.252zM683.843 803.78c-43.843 43.843-104.819 71.055-172.346 71.055-67.024 0-128-27.213-171.843-71.055-44.346-44.346-71.559-104.819-71.559-172.346 0-7.559 0-12.598-0.504-35.78l-0.504-41.323 134.047-0.504c123.465-0.504 267.087-1.008 354.772-0.504l-0.504 78.11c0 67.024-27.213 128-71.559 172.346zM85.165 21.165h853.669v446.992h-853.669v-446.992zM981.165-64.504h-938.331c-23.685 0-42.835 19.15-42.835 42.835v532.661c0 23.685 19.15 42.835 42.835 42.835h938.331c23.685 0 42.835-19.15 42.835-42.835v-532.661c0-23.685-19.15-42.835-42.835-42.835zM601.197 304.882c0-50.097-40.612-90.709-90.709-90.709s-90.709 40.612-90.709 90.709c0 50.097 40.612 90.709 90.709 90.709s90.709-40.612 90.709-90.709zM553.323 304.882v-172.346h-85.165v172.346z" />
<glyph unicode="&#xe915;" glyph-name="builder" d="M78.614 960h567.937c43.417 0 78.614-34.52 78.614-77.102v-142.614c0-42.582-35.197-77.102-78.614-77.102h-567.937c-43.417 0-78.614 34.52-78.614 77.102v142.614c0 42.582 35.197 77.102 78.614 77.102zM78.11 232.819h568.945c43.139 0 78.11-34.52 78.11-77.102v-142.614c0-42.582-34.971-77.102-78.11-77.102h-568.945c-43.139 0-78.11 34.52-78.11 77.102v142.614c0 42.582 34.971 77.102 78.11 77.102zM378.457 596.661h565.921c43.974 0 79.622-35.197 79.622-78.614v-139.591c0-43.417-35.648-78.614-79.622-78.614h-565.921c-43.974 0-79.622 35.197-79.622 78.614v139.591c0 43.417 35.648 78.614 79.622 78.614zM31.244 596.661h193.512c17.256 0 31.244-38.807 31.244-86.677v-123.465c0-47.87-13.988-86.677-31.244-86.677h-193.512c-17.256 0-31.244 38.807-31.244 86.677v123.465c0 47.87 13.988 86.677 31.244 86.677zM799.244 232.819h193.512c17.256 0 31.244-39.258 31.244-87.685v-121.449c0-48.427-13.988-87.685-31.244-87.685h-193.512c-17.256 0-31.244 39.258-31.244 87.685v121.449c0 48.427 13.988 87.685 31.244 87.685z" />
<glyph unicode="&#xe916;" glyph-name="calendar" d="M85.165 960c-46.866 0-85.165-38.299-85.165-85.165v-209.638h157.732v30.236c0 37.795 30.74 68.535 68.535 68.535v0c37.291 0 68.031-30.74 68.031-68.535v-30.236h435.906v30.236c0 37.795 30.74 68.535 68.031 68.535v0c37.795 0 68.535-30.74 68.535-68.535v-30.236h157.228v209.638c0 46.866-38.299 85.165-85.165 85.165h-853.669zM265.071 452.031l14.614-50.898c29.732 10.583 60.472 15.622 102.299 17.134 42.331 0 40.315-23.685 40.315-38.299 0-28.22-2.016-36.283-21.165-47.37 2.52 0-93.732 0-93.732 0 0-7.559 0-13.606-0.504-25.197v-3.024c0.504-11.591 0.504-17.638 0.504-25.701 0 0 96.252 0 93.732 0 19.15-10.583 21.165-19.15 21.165-46.866 0-15.118 2.016-38.299-40.315-38.299-41.827 1.512-72.567 6.047-102.299 17.134l-14.614-51.402c35.78-15.118 78.614-19.15 116.913-21.165 105.323 0 112.882 46.866 112.882 93.732-2.016 19.15-6.047 48.378-45.858 74.079 39.811 25.197 43.843 54.929 45.858 74.079 0 46.866-7.559 93.732-112.882 93.732-38.299-2.016-81.134-6.551-116.913-21.669zM548.283 441.449l15.118-44.85 42.331 13.102v-213.669h-64v-54.929h200.567v54.929h-64v281.701l-130.016-36.283zM1024 635.969v-614.803c0-46.866-38.299-85.165-85.165-85.165h-853.669c-46.866 0-85.165 38.299-85.165 85.165v614.803h157.732v-30.236c0-37.291 30.74-68.031 68.535-68.031v0c37.291 0 68.031 30.74 68.031 68.031v30.236h435.906v-30.236c0-37.291 30.74-68.031 68.031-68.031v0c37.795 0 68.535 30.74 68.535 68.031v30.236h157.228zM226.772 744.315v0c27.717 0 49.89-22.173 49.89-49.89v-87.685c0-27.213-22.173-49.89-49.89-49.89v0c-27.717 0-50.394 22.677-50.394 49.89v87.685c0 27.717 22.677 49.89 50.394 49.89zM799.748 744.315v0c27.717 0 49.89-22.173 49.89-49.89v-87.685c0-27.213-22.173-49.89-49.89-49.89v0c-27.717 0-50.394 22.677-50.394 49.89v87.685c0 27.717 22.677 49.89 50.394 49.89z" />
<glyph unicode="&#xe917;" glyph-name="calendar2" d="M81.638 960h860.724c22.677 0 42.835-9.071 57.449-24.189v0c15.118-14.614 24.189-35.276 24.189-57.449v-860.724c0-22.173-9.071-42.835-24.189-57.449v0c-14.614-15.118-35.276-24.189-57.449-24.189h-860.724c-22.173 0-42.835 9.071-57.449 24.189v0c-15.118 14.614-24.189 34.772-24.189 57.449v860.724c0 22.677 9.071 42.835 24.189 57.449 14.614 15.118 34.772 24.189 57.449 24.189zM938.835 874.835h-853.669v-853.669h853.669v853.669zM2.016 678.299h1019.969v-85.669h-1019.969zM288.756 750.362v0c22.677 0 40.819-18.646 40.819-41.323v-146.646c0-22.677-18.142-41.323-40.819-41.323v0c-22.677 0-41.323 18.646-41.323 41.323v146.646c0 22.677 18.646 41.323 41.323 41.323zM651.087 460.094h80.63v-315.465h-84.157v220.724l-57.449-48.882-45.354 53.417zM284.724 226.772l-0.504-68.031c76.094-16.126 221.732-41.323 221.732 77.102 0 45.858-30.74 65.008-73.575 74.079 39.307 10.583 65.512 44.85 65.512 79.118-0.504 73.575-94.236 79.622-149.165 67.528-24.189-5.039-42.331-15.118-64-26.205l32.756-52.409c21.165 11.087 93.732 37.291 99.78-3.528 5.543-41.323-60.976-38.803-86.173-37.795l1.008-63.496c22.677 0.504 93.228 5.039 86.677-39.811-7.055-45.354-107.339-18.142-134.047-6.551zM735.244 750.362v0c22.677 0 41.323-18.646 41.323-41.323v-146.646c0-22.677-18.646-41.323-41.323-41.323v0c-22.677 0-40.819 18.646-40.819 41.323v146.646c0 22.677 18.142 41.323 40.819 41.323z" />
<glyph unicode="&#xe918;" glyph-name="call" d="M685.354 938.835c-28.22 28.22-75.087 28.22-103.811 0l-560.378-560.378c-28.22-28.724-28.22-75.591 0-103.811l317.48-317.48c28.22-28.22 75.087-28.22 103.811 0l560.378 560.378c28.22 28.724 28.22 75.591 0 103.811l-317.48 317.48zM288.756 223.748c17.134-17.638 17.134-45.858 0-62.992-17.638-17.638-45.858-17.638-62.992 0-17.638 17.134-17.638 45.354 0 62.992 17.134 17.134 45.354 17.134 62.992 0zM637.48 869.795l297.323-297.323-456.567-456.567-297.323 297.323 456.567 456.567zM628.409 758.425l194.52-194.52-60.976-60.976-194.52 194.52zM525.102 655.118l115.402-114.898-61.48-61.48-114.898 115.402z" />
<glyph unicode="&#xe919;" glyph-name="callin" d="M600.189 596.661l363.339 362.835 59.969-60.472-362.835-362.835h192v-85.165h-337.638v342.677h85.165zM626.898 202.583c17.638-2.52 32.252-4.031 43.843-2.016 9.071 1.008 18.142 5.039 29.228 13.606 31.244 24.189 44.346 37.291 62.488 55.937 7.559 8.063 15.622 16.63 26.709 27.213 16.63 16.126 43.339 16.126 59.969 0l162.268-162.268c16.63-16.63 16.63-42.835 1.008-59.465l-100.787-106.331c-34.268-35.78-85.669-40.315-147.15-23.181-56.441 15.622-124.472 50.898-194.52 97.26-89.701 59.465-172.85 127.496-248.441 203.087-77.606 77.606-147.654 163.276-209.638 253.984l-1.512 3.024c-46.866 69.543-83.15 137.071-99.78 193.512-18.142 61.984-14.11 114.394 21.669 148.661l105.323 101.795c16.63 16.63 43.339 16.126 59.465-0.504 54.425-53.921 107.843-108.346 161.764-162.268 16.126-16.63 16.63-42.331 1.008-58.961-12.094-13.102-24.189-25.701-36.283-36.787-20.157-20.157-37.795-37.291-47.874-55.433-6.551-11.087-9.575-23.181-10.583-35.78-0.504-14.11 1.512-29.228 4.535-44.85 12.094-56.441 76.094-142.614 151.685-216.693 72.063-70.047 151.685-126.488 205.606-133.543zM682.331 115.906c-21.165-3.024-41.323-1.008-66.016 2.52l-7.055 1.008 7.559-5.039c62.992-41.827 122.961-73.071 170.331-86.677 30.74-8.567 53.417-9.575 62.488 0.504l72.567 75.591-103.307 102.803c-18.142-18.646-33.26-33.764-66.52-59.465-24.189-18.646-46.362-27.717-70.047-31.244zM182.929 548.283l1.512-2.52c-3.528 18.646-5.543 37.795-4.031 56.945 1.512 24.693 7.559 48.882 21.165 73.071 16.126 28.22 37.795 49.386 62.488 73.575l5.039 5.039-102.803 102.803-75.087-72.567c-9.575-9.575-8.063-32.252 1.008-63.496 14.11-47.874 46.362-107.339 88.189-169.827l2.52-3.024z" />
<glyph unicode="&#xe91a;" glyph-name="callout" d="M628.409 204.094c17.638-2.52 32.252-4.031 43.843-2.52 9.071 1.512 18.142 5.543 29.732 14.11 30.74 24.189 43.843 37.291 61.984 55.937 7.559 7.559 15.622 16.126 26.709 27.213 16.63 16.126 43.339 16.126 59.969-0.504l162.268-162.268c16.63-16.126 17.134-42.331 1.008-59.465l-100.787-105.827c-34.268-35.78-85.669-40.819-147.15-23.685-56.441 16.126-124.472 51.402-194.52 97.764-89.701 59.465-172.85 127.496-248.441 202.583-77.606 78.11-147.654 163.276-209.638 254.488l-1.512 3.024c-46.866 69.543-83.15 137.071-99.78 193.512-18.142 61.984-14.11 113.89 21.669 148.661l105.323 101.795c16.63 16.126 43.339 16.126 59.465-0.504 54.425-53.921 107.843-108.346 161.764-162.772 16.126-16.126 16.63-41.827 1.008-58.457-12.094-13.606-24.189-25.701-36.283-37.291-20.157-19.654-37.795-36.787-47.874-54.929-6.551-11.591-9.575-23.685-10.583-35.78-0.504-14.11 1.512-29.228 4.535-44.85 12.094-56.441 76.094-143.118 152.189-217.197 71.559-69.543 151.181-125.984 205.102-133.039zM683.843 117.417c-21.165-3.024-41.323-1.008-66.016 2.016l-7.055 1.008 7.559-4.535c62.992-41.827 122.961-73.071 170.331-86.677 30.74-8.567 53.417-9.575 62.488 0l72.567 76.094-103.307 102.803c-18.142-19.15-33.26-33.764-66.52-59.969-24.189-18.646-46.362-27.213-70.047-30.74zM184.441 549.795l1.512-2.52c-3.528 18.646-5.543 37.795-4.031 56.945 1.512 24.693 7.559 48.882 21.165 72.567 16.126 28.724 37.795 49.89 62.488 74.079l5.039 4.535-102.803 103.307-75.087-72.567c-9.575-9.575-8.063-32.252 1.008-63.496 14.11-47.874 46.362-107.339 88.189-170.331l2.52-2.52zM940.346 815.37l-363.339-362.835-59.969 60.472 362.835 362.835h-192v84.661l337.638 0.504v-342.677h-85.165z" />
<glyph unicode="&#xe91b;" glyph-name="camera" d="M72.533 746.667h166.4l38.4 123.733c8.533 25.6 21.333 51.2 42.667 64 21.333 17.067 42.667 25.6 76.8 25.6v0h226.133c29.867 0 55.467-8.533 76.8-25.6s34.133-38.4 42.667-64l38.4-123.733h166.4c21.333 0 38.4-8.533 55.467-21.333v0c12.8-12.8 21.333-34.133 21.333-55.467v-657.067c0-21.333-8.533-38.4-21.333-55.467v0c-12.8-12.8-34.133-21.333-55.467-21.333h-870.4c-21.333 0-38.4 8.533-55.467 21.333v0c-12.8 12.8-21.333 34.133-21.333 55.467v657.067c0 21.333 8.533 38.4 21.333 55.467v0c12.8 12.8 34.133 21.333 55.467 21.333zM268.8 661.333h-187.733v-640h853.333v640h-221.867l-55.467 187.733c-4.267 8.533-8.533 17.067-12.8 21.333s-12.8 8.533-21.333 8.533v0h-226.133c-8.533 0-17.067-4.267-21.333-8.533s-12.8-12.8-12.8-21.333l-55.467-187.733h-29.867zM183.467 597.333c25.6 0 46.933-21.333 46.933-46.933s-21.333-46.933-46.933-46.933c-25.6 0-46.933 21.333-46.933 46.933s21.333 46.933 46.933 46.933zM512 580.267c59.733 0 115.2-25.6 153.6-64s64-93.867 64-153.6c0-59.733-25.6-115.2-64-153.6s-93.867-64-153.6-64c-59.733 0-115.2 25.6-153.6 64s-64 93.867-64 153.6c0 59.733 25.6 115.2 64 153.6s93.867 64 153.6 64zM605.867 456.533c-25.6 25.6-55.467 38.4-93.867 38.4-34.133 0-68.267-12.8-93.867-38.4s-38.4-55.467-38.4-93.867c0-34.133 12.8-68.267 38.4-93.867s55.467-38.4 93.867-38.4c34.133 0 68.267 12.8 93.867 38.4s38.4 55.467 38.4 93.867c0 34.133-12.8 68.267-38.4 93.867z" />
<glyph unicode="&#xe91c;" glyph-name="changeprice" d="M341.333 324.267h68.267v68.267h-68.267v85.333h68.267v217.6h85.333c51.2 0-38.4 0 76.8 0 42.667 0 81.067-12.8 110.933-38.4s51.2-59.733 51.2-98.133v-29.867c0-38.4-21.333-76.8-51.2-98.133s-68.267-38.4-110.933-38.4v0c-25.6 0-51.2 0-76.8 0v-68.267h153.6v-85.333h-153.6v-89.6h-85.333v89.6h-68.267v85.333zM571.733 610.133h-76.8v-132.267h76.8c21.333 0 42.667 8.533 55.467 17.067s17.067 21.333 17.067 34.133v29.867c0 12.8-8.533 25.6-17.067 34.133-12.8 12.8-34.133 17.067-55.467 17.067zM298.667-17.067c-89.6 42.667-166.4 106.667-217.6 192-51.2 81.067-81.067 174.933-81.067 277.333 0 115.2 38.4 217.6 98.133 302.933 64 85.333 153.6 153.6 260.267 187.733l25.6-81.067c-89.6-25.6-166.4-81.067-217.6-153.6s-81.067-157.867-81.067-251.733c0-85.333 25.6-162.133 68.267-230.4s106.667-123.733 183.467-157.867l-34.133-76.8zM725.333 917.333c89.6-42.667 166.4-106.667 217.6-187.733s81.067-174.933 81.067-277.333c0-106.667-34.133-204.8-85.333-285.867-55.467-85.333-136.533-149.333-234.667-187.733l-34.133 81.067c81.067 34.133 145.067 89.6 196.267 157.867 46.933 68.267 72.533 149.333 72.533 238.933 0 85.333-25.6 166.4-68.267 230.4-42.667 68.267-106.667 123.733-183.467 157.867l34.133 76.8zM469.333 960l-64-115.2-68.267-110.933-64 110.933-68.267 115.2h132.267zM819.2-68.267h-264.533l68.267 115.2 64 115.2 64-115.2z" />
<glyph unicode="&#xe91d;" glyph-name="clients" d="M729.701 838.047c103.811 0 209.134-105.827 187.465-227.78-21.165-122.457-83.654-227.78-187.465-227.78s-166.299 104.315-187.969 227.78c-21.165 122.961 84.157 227.78 187.969 227.78zM512-63.496h435.402c41.827 0 76.598 34.772 76.598 76.598v247.433c0 42.331-34.772 77.102-76.598 77.102h-107.339c-29.228-31.748-66.016-51.402-110.362-51.402-44.85 0-81.638 19.654-110.866 51.402h-106.835c-42.331 0-76.598-34.772-76.598-77.102v-247.433c0-41.827 34.268-76.598 76.598-76.598zM294.299 959.496c103.811 0 209.134-105.827 187.969-227.78-21.669-121.953-84.157-227.78-187.969-227.78s-166.299 104.315-187.465 227.78c-21.669 123.465 83.654 227.78 187.465 227.78zM76.598 57.953h337.134v223.244c0 41.827 34.772 76.598 77.102 76.598h97.764v24.693c0 42.331-34.268 76.598-76.598 76.598h-106.835c-29.228-31.748-66.52-50.898-110.866-50.898s-81.638 19.15-110.866 50.898h-106.835c-41.827 0-76.598-34.268-76.598-76.598v-247.433c0-42.331 34.772-77.102 76.598-77.102z" />
<glyph unicode="&#xe91e;" glyph-name="close" d="M85.333 960l942.933-942.933-85.333-85.333-942.933 942.933zM0 17.067l942.933 942.933 85.333-85.333-942.933-942.933z" />
<glyph unicode="&#xe91f;" glyph-name="colorsettings" d="M366.362 53.921l106.835 106.331-246.929 246.929-106.331-106.835 246.425-246.425zM572.976 126.992l-206.614-206.614-379.969 379.969 239.874 240.378 380.472-380.472-33.764-33.26zM115.906 425.323l197.543 197.543 29.228-18.646c44.85-29.228 89.197-46.866 129.008-49.386 31.748-1.512 61.48 7.055 87.181 28.724 25.197 31.748 52.913 77.102 81.134 124.976 42.331 70.047 87.181 144.126 135.559 190.992 62.992 61.48 129.008 80.126 198.551 8.567v0c70.047-72.567 44.85-140.598-21.165-204.598-46.362-44.85-113.89-85.669-177.386-124.472-53.921-33.26-105.323-64.504-132.535-91.717-22.677-24.693-29.732-52.913-27.717-82.142 3.024-41.827 25.197-86.173 52.409-125.984l20.157-29.228-198.551-198.551-59.969 60.472 149.165 149.165c-25.701 43.339-44.85 90.709-48.378 138.079-2.016 26.709 1.008 53.417 9.575 79.118-23.181-7.055-47.37-9.575-72.567-8.063-45.858 2.52-93.732 18.142-141.102 44.85l-150.173-150.173-59.969 60.472zM713.071 664.693c-7.559-13.102-15.622-26.205-23.181-38.803 13.606 8.567 27.213 17.134 41.323 25.701 59.969 36.283 122.961 75.087 162.772 112.882 30.236 29.732 43.843 58.457 19.15 84.661-24.693 25.197-51.402 15.622-78.614-10.583-40.315-39.307-81.638-108.346-121.449-173.858z" />
<glyph unicode="&#xe920;" glyph-name="compare" d="M671.748 489.323h291.78v-85.165h-291.78zM200.567 26.709h622.866v-85.165h-622.866zM468.661-16.126v776.567h85.165v-776.567zM556.346 834.52c0 12.598-5.039 24.189-13.102 32.252s-19.15 13.102-31.748 13.102c-12.598 0-23.685-5.039-31.748-13.102s-13.102-19.654-13.102-32.252c0-12.094 5.039-23.685 13.102-31.748v0c8.063-8.063 19.15-13.102 31.748-13.102s23.685 5.039 31.748 13.102v0c8.063 8.063 13.102 19.654 13.102 31.748zM603.717 926.74c23.685-23.181 38.299-55.937 38.299-92.22 0-35.78-14.614-68.535-38.299-91.717v0c-23.685-23.685-56.441-38.299-92.22-38.299s-68.535 14.614-92.22 38.299v0c-23.685 23.181-38.299 55.937-38.299 91.717 0 36.283 14.614 69.039 38.299 92.22 23.685 23.685 56.441 38.299 92.22 38.299s68.535-14.614 92.22-38.299zM407.181 862.74l14.614-83.654-421.795-60.976v84.157zM583.559 889.449l440.441 65.008v-87.181l-428.85-62.488zM241.386 750.866l147.654-378.457c0.504-1.008 1.008-2.52 1.008-3.528 2.52-8.063 4.535-16.63 6.047-26.709s2.52-19.15 2.52-28.22c0-53.417-22.677-101.291-58.457-136.567h-0.504c-35.78-34.268-84.661-55.433-138.079-55.433-53.921 0-102.803 21.165-138.583 55.433-35.78 35.276-58.457 83.15-58.457 136.567 0 5.039 0.504 11.087 1.008 17.134 0.504 5.543 1.008 12.094 2.52 18.646 1.512 8.567 3.528 14.11 5.039 19.654 0.504 1.512 1.008 3.024 1.512 4.535l147.15 376.945c8.567 22.173 33.26 32.756 55.433 24.189 11.591-4.535 19.654-13.606 24.189-24.189zM308.409 343.685l-106.835 274.646-107.339-275.15c-1.008-3.528-2.016-7.559-2.52-9.071l-0.504-2.016c0-1.512-0.504-4.535-1.008-7.559 0-3.024 0-6.551 0-10.583 0-29.228 12.094-55.937 31.748-75.087h0.504c20.157-19.654 47.874-31.748 79.118-31.748s58.961 12.094 79.118 31.748h0.504c19.654 19.15 31.748 45.858 31.748 75.087 0 5.543 0 11.087-1.008 15.118-0.504 4.535-1.512 9.071-3.528 14.614zM49.89 392.567h291.78v-85.165h-291.78zM863.244 848.126l147.654-378.457c0.504-1.008 1.008-2.52 1.008-3.528 2.52-8.063 4.535-16.63 6.047-26.709 1.512-9.575 2.52-19.15 2.52-28.22 0-53.417-22.677-101.291-58.457-136.567h-0.504c-35.78-34.268-84.661-55.433-138.079-55.433-53.921 0-102.803 21.165-138.583 55.433-35.78 35.276-58.457 83.15-58.457 136.567 0 5.543 0.504 11.087 1.008 17.134 0.504 5.543 1.008 12.094 2.52 18.646 1.512 8.567 3.528 14.11 5.039 19.654 0.504 1.512 1.008 3.024 1.512 4.535l147.15 376.945c8.567 22.173 33.26 32.756 55.433 24.189 11.591-4.535 19.654-13.102 24.189-24.189zM930.268 440.945l-106.835 274.646-107.339-274.646c-1.008-4.031-2.016-8.063-2.52-9.575l-0.504-2.016c0-1.512-0.504-4.535-1.008-7.559 0-3.024 0-6.551 0-10.583 0-29.228 12.094-55.937 31.748-75.087h0.504c20.157-19.654 47.874-31.748 79.118-31.748s58.961 12.094 79.118 31.748h0.504c19.654 19.15 31.748 45.858 31.748 75.087 0 5.543 0 11.087-1.008 15.118-0.504 4.535-1.512 9.071-3.528 14.614z" />
<glyph unicode="&#xe921;" glyph-name="control" d="M415.244 408.189c3.528-10.079 9.071-20.157 15.622-28.724 4.535-5.039 2.52-2.52 3.528-3.528 4.031-4.031 8.063-8.063 11.591-12.094v0c21.165-23.181 37.795-50.394 48.882-79.622v0c11.087-28.724 17.134-59.969 17.134-91.717 0-70.551-28.724-134.551-74.583-180.913-46.362-45.858-110.362-74.583-180.409-74.583-70.551 0-134.551 28.724-180.913 74.583-45.858 46.362-74.583 110.362-74.583 180.913v392.063c2.016 34.268 17.134 65.008 40.819 87.181 23.181 22.173 54.929 35.78 89.701 35.78h5.039c23.181 0 42.331-19.15 42.331-42.331 0-23.685-19.15-42.835-42.331-42.835h-5.039c-12.598 0-23.181-4.535-31.244-12.598-7.559-7.055-13.102-16.63-14.11-27.717v-199.055c45.354 40.315 104.819 65.008 170.331 65.008 22.677 0 45.354-3.024 67.024-9.071v5.039c0 52.409 21.669 100.283 56.441 135.055s82.646 56.441 135.055 56.441h5.543c-6.047 21.669-9.071 43.843-9.071 67.024 0 66.016 24.693 125.984 65.512 171.339h-208.126c-11.087-1.008-20.661-6.551-27.717-14.11-8.063-8.063-12.598-18.646-12.598-31.244v-5.039c0-23.181-19.15-42.331-42.835-42.331-23.181 0-42.331 19.15-42.331 42.331v5.039c0 34.772 13.606 66.52 35.78 89.701 22.173 23.685 52.913 38.803 87.181 40.819h381.48c3.528 0 7.055-0.504 10.079-1.008 3.024 0 6.047 0 8.567 0 70.551 0 134.551-28.724 180.913-74.583 45.858-46.362 74.583-110.362 74.583-180.913 0-70.047-28.724-134.047-74.583-180.409-46.362-45.858-110.362-74.583-180.913-74.583-53.921 0-104.315 16.63-145.638 45.354-8.567 2.52-16.126 7.559-22.173 15.622-2.52 3.528-5.543 6.551-8.567 10.079l-3.528 3.528c-7.559 6.551-16.126 12.598-25.197 17.134-13.606 7.055-29.228 11.087-46.362 11.087-28.724 0-55.433-12.094-75.087-31.748-19.15-19.15-31.244-45.858-31.244-74.583 0-13.102 2.016-24.693 6.047-35.78zM317.48 351.748c-18.646 7.055-38.803 11.087-60.472 11.087-47.37 0-89.701-19.15-120.441-49.89s-49.89-73.575-49.89-120.441c0-47.37 19.15-89.701 49.89-120.441s73.071-49.89 120.441-49.89c46.866 0 89.197 19.15 119.937 49.89s49.89 73.071 49.89 120.441c0 21.669-4.031 42.835-11.087 61.48h-0.504c-7.559 19.654-18.646 37.795-32.252 52.913v0c-2.52 3.024-5.543 5.543-8.063 8.063-4.535 4.031-2.52 2.52-5.543 5.543v0c-15.118 13.102-32.756 23.685-51.906 31.244v0zM887.433 822.929c-30.74 30.74-73.071 49.89-120.441 49.89-46.866 0-89.197-19.15-119.937-49.89s-49.89-73.071-49.89-120.441c0-46.866 19.15-89.197 49.89-119.937s73.071-49.89 119.937-49.89c47.37 0 89.701 19.15 120.441 49.89s49.89 73.071 49.89 119.937c0 47.37-19.15 89.701-49.89 120.441z" />
<glyph unicode="&#xe922;" glyph-name="controlbuilders" d="M446.992 960h124.472c35.78 0 69.039-15.118 92.724-38.803 24.189-23.685 38.803-56.441 38.803-92.724v-579.024c0-88.189-53.417-87.685-121.449-87.181h-10.079v-0.504h-124.472v0.504h-6.047c-70.551-0.504-125.984-0.504-125.984 89.197v577.008c0 36.283 14.614 69.039 38.803 92.724 23.685 23.685 56.945 38.803 93.228 38.803zM571.465 874.331h-124.472c-13.102 0-24.693-5.039-33.26-13.102-8.063-8.567-13.606-20.157-13.606-32.756v-577.008c0-4.535 18.142-4.535 40.819-4.535h6.047v0.504h124.472v-0.504h10.583c19.654 0 35.78 0 35.78 2.52v579.024c0 12.598-5.039 24.189-13.606 32.252-8.567 8.567-20.157 13.606-32.756 13.606zM674.268 872.315c102.803-40.819 190.992-118.425 252.472-219.213 59.465-97.26 94.236-216.189 94.236-344.693 0-6.047 0.504-8.567 0.504-11.591 1.008-24.189 2.016-50.898-23.181-65.008l-3.528-2.016-2.52-1.008c-136.063-50.898-307.402-73.071-474.709-73.071-183.433-0.504-363.339 26.205-486.299 72.063l-9.071 3.024-6.551 6.551c-10.079 9.575-13.102 27.213-13.102 45.354-0.504 19.654-0.504 23.181-0.504 25.701 0 125.984 33.764 243.402 91.213 339.654 59.465 99.78 144.63 177.386 244.913 219.717l58.961 24.693v-641.008c0-4.535 18.646-4.535 41.323-4.535h5.543v0.504h125.48v-0.504h10.583c20.157 0 36.283 0 36.283 2.52v645.543l57.953-22.677zM854.173 608.756c-39.811 65.008-92.22 118.425-152.693 155.213v-513.512c83.654 9.575 163.78 25.197 234.835 48.882l-0.504 9.071c0 112.378-30.236 216.189-81.638 300.346zM87.181 298.331c63.496-20.661 141.102-36.283 224.756-46.362v505.953c-57.953-36.787-107.843-89.701-145.638-153.701-49.89-83.15-79.118-185.449-79.118-295.811v-10.079zM91.213 274.646c8.063-28.22 14.614-59.969 20.661-92.22 14.11-70.551 28.724-143.622 51.906-154.205l1.008-0.504c2.52-1.008 8.567-2.52 17.638-4.031 9.575-1.008 21.165-2.016 34.772-2.016h588.598c13.102 0 24.693 1.008 34.268 2.016 9.071 1.512 15.118 3.024 17.638 4.031l1.008 0.504c23.685 10.583 37.795 83.654 51.906 153.701 6.551 32.756 12.598 64.504 20.661 92.724l82.142-23.181c-7.055-25.197-13.102-55.433-19.15-85.669-18.142-91.213-36.787-185.953-99.78-214.677v0c-9.071-4.535-23.685-9.071-42.331-11.591-13.102-2.016-29.228-3.528-46.362-3.528h-588.598c-17.638 0-33.764 1.512-46.866 3.528-18.646 2.52-33.26 7.055-42.331 11.591v0c-62.488 29.228-81.134 123.465-99.78 214.677-6.047 30.74-12.094 60.976-19.15 85.669l82.142 23.181z" />
<glyph unicode="&#xe923;" glyph-name="controlsite" d="M1024 362.835v-225.764l-512-200.063-512 200.063v288.252l512-200.063 512 200.063v-62.488zM938.331 195.528v104.819l-175.874-69.039-250.457-97.764-426.331 166.803v-104.819l426.331-166.803 426.331 166.803zM527.622 952.945l496.378-194.016v-425.323l-512-200.063-512 200.063v425.323l512 200.063 15.622-6.047zM731.213 781.606l-219.213 85.669-426.331-166.803v-308.409l426.331-166.803 426.331 166.803v308.409l-207.118 81.134zM554.835 179.402v-196.535h-85.669v196.535zM515.528 738.268c65.008 0 124.472-20.661 167.811-53.921 46.362-35.78 75.591-86.173 75.591-142.614s-29.228-106.835-75.591-142.614c-43.843-33.26-102.803-53.921-167.811-53.921s-123.969 20.661-167.811 53.921c-46.362 35.78-75.591 86.173-75.591 142.614s29.228 106.835 75.591 142.614c43.339 33.26 102.803 53.921 167.811 53.921zM631.433 616.819c-28.724 22.173-70.047 35.78-115.906 35.78s-87.181-13.606-115.906-35.78c-26.205-20.157-41.827-46.362-41.827-75.087 0-13.606 3.528-26.709 10.079-39.307 14.614 9.071 29.732 16.63 46.362 22.677 30.74 11.087 65.512 17.638 101.291 17.638 34.268 0 67.024-6.047 97.26-16.63 17.638-6.047 34.772-14.11 50.394-23.685 6.551 12.598 10.079 25.701 10.079 39.307 0 28.724-15.622 54.929-41.827 75.087zM515.528 430.866c27.213 0 52.409 4.535 74.583 13.102l-5.543 2.016c-20.661 7.055-43.843 11.087-69.039 11.087-26.205 0-50.394-4.031-72.063-12.094l-2.52-1.008c22.173-8.567 47.37-13.102 74.583-13.102z" />
<glyph unicode="&#xe924;" glyph-name="copy" d="M85.333 750.933h512c21.333 0 42.667-8.533 59.733-25.6v0c17.067-17.067 25.6-38.4 25.6-59.733v-644.267c0-21.333-8.533-42.667-25.6-59.733v0c-17.067-17.067-38.4-25.6-59.733-25.6h-512c-21.333 0-42.667 8.533-59.733 25.6v0c-17.067 17.067-25.6 38.4-25.6 59.733v644.267c0 21.333 8.533 42.667 25.6 59.733v0c17.067 17.067 38.4 25.6 59.733 25.6zM597.333 665.6c0 0 0 0 0 0zM597.333 665.6c0 0 0 0 0 0zM597.333 665.6h-512v-644.267h512v644.267zM85.333 665.6v0 0 0zM597.333 665.6v0c0 0 0 0 0 0zM597.333 21.333c0 0 0 0 0 0v0zM597.333 21.333v0c0 0 0 0 0 0zM85.333 21.333v0 0 0zM85.333 21.333c0 0 0 0 0 0v0zM85.333 21.333v0c0 0 0 0 0 0zM85.333 665.6v0c0 0 0 0 0 0zM341.333 716.8v153.6c0 21.333 8.533 42.667 25.6 59.733v0c17.067 17.067 38.4 25.6 59.733 25.6h512c21.333 0 42.667-8.533 59.733-25.6v0c17.067-17.067 25.6-38.4 25.6-59.733v-644.267c0-21.333-8.533-42.667-25.6-59.733v0c-17.067-17.067-38.4-25.6-59.733-25.6h-290.133v85.333h290.133v644.267h-512v-153.6h-85.333zM426.667 870.4v0 0 0zM426.667 870.4v0c0 0 0 0 0 0zM938.667 870.4c0 0 0 0 0 0zM938.667 870.4c0 0 0 0 0 0zM938.667 870.4v0c0 0 0 0 0 0zM938.667 226.133c0 0 0 0 0 0v0zM938.667 226.133v0c0 0 0 0 0 0zM166.4 388.267h349.867v-85.333h-349.867zM298.667 170.667v349.867h85.333v-349.867z" />
<glyph unicode="&#xe925;" glyph-name="dashboard" d="M89.197 960c-48.882 0-89.197-40.315-89.197-89.197v-581.543c0-49.386 40.315-89.197 89.197-89.197h845.606c48.882 0 89.197 39.811 89.197 89.197v581.543c0 48.882-40.315 89.197-89.197 89.197h-845.606zM601.701 665.701h110.866v-238.866h-110.866v238.866zM311.433 776.567h110.866v-349.732h-110.866v349.732zM456.567 571.969h110.866v-145.134h-110.866v145.134zM802.268-64h89.701v242.898h-89.701v-59.465h-580.535v59.465h-89.701v-242.898h89.701v93.732h580.535z" />
<glyph unicode="&#xe926;" glyph-name="deal" d="M951.433 268.598v-221.732c0-48.882-40.315-89.197-89.701-89.197h-699.465c-49.386 0-89.701 40.315-89.701 89.197v222.236c139.087-0.504 258.016-1.008 366.866-1.008v-33.764c0-38.299 31.244-70.047 70.047-70.047v0c38.803 0 70.551 31.748 70.551 70.047v33.764c123.969 0 241.386 0.504 371.402 0.504v0zM89.701 753.89h844.598c49.386 0 89.701-40.315 89.701-89.701v-285.228c0-48.882-40.315-89.197-89.701-89.197h-354.268v38.299c0 38.803-31.748 70.047-70.551 70.047v0c-38.803 0-70.047-31.244-70.047-70.047v-38.299h-349.732c-49.386 0-89.701 40.315-89.701 89.197v285.228c0 49.386 40.315 89.701 89.701 89.701zM510.488 374.929v0c27.717 0 50.394-42.331 50.394-93.732v0c0-51.906-22.677-93.732-49.89-93.732h-0.504c-27.213 0-49.89 41.827-49.89 93.732v0c0 51.402 22.677 93.732 50.394 93.732zM677.795 728.189c0 46.362-18.646 88.189-48.882 118.425-30.74 30.74-72.567 49.386-119.433 49.386s-88.693-18.646-119.433-49.386c-30.236-30.236-48.882-72.063-48.882-118.425 0-46.866 18.646-88.693 48.882-118.929 30.74-30.236 72.567-49.386 119.433-49.386s88.693 19.15 119.433 49.386c30.236 30.236 48.882 72.063 48.882 118.929zM688.882 907.087c45.858-45.858 74.583-109.354 74.583-178.898 0-70.047-28.724-133.543-74.583-179.402s-109.354-74.079-179.402-74.079c-70.047 0-133.543 28.22-179.402 74.079s-74.583 109.354-74.583 179.402c0 69.543 28.724 133.039 74.583 178.898s109.354 74.079 179.402 74.079c70.047 0 133.543-28.22 179.402-74.079z" />
<glyph unicode="&#xe927;" glyph-name="decline" d="M512 960c140.8 0 268.8-55.467 362.667-149.333s149.333-221.867 149.333-362.667c0-140.8-55.467-268.8-149.333-362.667s-221.867-149.333-362.667-149.333c-140.8 0-268.8 55.467-362.667 149.333s-149.333 221.867-149.333 362.667c0 140.8 55.467 268.8 149.333 362.667s221.867 149.333 362.667 149.333zM814.933 750.933c-76.8 76.8-183.467 123.733-302.933 123.733s-226.133-46.933-302.933-123.733c-76.8-76.8-123.733-183.467-123.733-302.933s46.933-226.133 123.733-302.933c76.8-76.8 183.467-123.733 302.933-123.733s226.133 46.933 302.933 123.733c76.8 76.8 123.733 183.467 123.733 302.933s-46.933 226.133-123.733 302.933zM379.733 644.267l328.533-324.267-59.733-59.733-328.533 320zM708.267 580.267l-328.533-320-59.733 59.733 328.533 324.267z" />
<glyph unicode="&#xe928;" glyph-name="delete" d="M938.331 448c0 117.921-47.37 224.252-124.976 301.354-77.102 77.606-183.433 124.976-301.354 124.976s-224.252-47.37-301.354-124.976c-77.606-77.102-124.976-183.433-124.976-301.354s47.37-224.252 124.976-301.354c77.102-77.606 183.433-124.976 301.354-124.976s224.252 47.37 301.354 124.976c77.606 77.102 124.976 183.433 124.976 301.354zM873.827 809.827c92.724-92.724 150.173-220.724 150.173-361.827s-57.449-269.102-150.173-361.827c-92.724-92.724-220.724-150.173-361.827-150.173s-269.102 57.449-361.827 150.173c-92.724 92.724-150.173 220.724-150.173 361.827s57.449 269.102 150.173 361.827c92.724 92.724 220.724 150.173 361.827 150.173s269.102-57.449 361.827-150.173zM242.898 656.63l60.472 60.472 477.732-477.732-60.472-60.472zM720.63 717.102l60.472-60.472-477.732-477.732-60.472 60.472z" />
<glyph unicode="&#xe929;" glyph-name="deleteno" d="M81.067 960h861.867c21.333 0 42.667-8.533 59.733-25.6v0c12.8-12.8 25.6-34.133 25.6-59.733v-772.267c0-21.333-8.533-42.667-25.6-55.467v0c-12.8-12.8-34.133-25.6-55.467-25.6h-861.867c-21.333 0-42.667 8.533-59.733 25.6v0c-12.8 12.8-25.6 34.133-25.6 59.733v772.267c0 21.333 8.533 42.667 25.6 59.733 12.8 12.8 34.133 25.6 59.733 25.6zM938.667 874.667h-853.333v-763.733h853.333v763.733zM12.8 704v0c0 21.333 17.067 42.667 42.667 42.667h72.533c21.333 0 42.667-17.067 42.667-42.667v0c0-21.333-17.067-42.667-42.667-42.667h-72.533c-21.333 0-42.667 17.067-42.667 42.667zM12.8 277.333v0c0 21.333 17.067 42.667 42.667 42.667h72.533c21.333 0 42.667-17.067 42.667-42.667v0c0-21.333-17.067-42.667-42.667-42.667h-72.533c-21.333 0-42.667 17.067-42.667 42.667zM486.4 699.733c55.467 0 110.933-21.333 145.067-59.733 38.4-38.4 59.733-89.6 59.733-145.067s-21.333-110.933-59.733-145.067c-38.4-38.4-89.6-59.733-145.067-59.733s-110.933 21.333-145.067 59.733c-38.4 38.4-59.733 89.6-59.733 145.067s21.333 110.933 59.733 145.067c38.4 38.4 89.6 59.733 145.067 59.733zM571.733 580.267c-21.333 21.333-51.2 34.133-85.333 34.133s-64-12.8-85.333-34.133c-21.333-21.333-34.133-51.2-34.133-85.333s12.8-64 34.133-85.333c21.333-21.333 51.2-34.133 85.333-34.133s64 12.8 85.333 34.133c21.333 21.333 34.133 51.2 34.133 85.333s-12.8 64-34.133 85.333zM827.733 644.267v0c21.333 0 42.667-17.067 42.667-42.667v-217.6c0-21.333-17.067-42.667-42.667-42.667v0c-21.333 0-42.667 17.067-42.667 42.667v217.6c0 21.333 17.067 42.667 42.667 42.667zM490.667 533.333c21.333 0 42.667-17.067 42.667-42.667 0-21.333-17.067-42.667-42.667-42.667-21.333 0-42.667 17.067-42.667 42.667 0 21.333 17.067 42.667 42.667 42.667zM153.6-64v119.467h85.333v-119.467zM785.067-64v119.467h85.333v-119.467z" />
<glyph unicode="&#xe92a;" glyph-name="docs" d="M85.669 752.378h511.496c23.685 0 44.85-10.079 60.472-25.701s25.197-36.787 25.197-60.472h-0.504v-643.024c0-23.685-9.071-44.85-24.693-60.472v0 0c-15.118-15.622-36.787-25.701-60.472-25.701v0.504h-511.496c-23.685 0-45.354 9.575-60.472 25.197-15.622 15.622-25.197 36.787-25.197 60.472h0.504v643.024c0 23.685 9.071 45.354 24.693 60.472 1.008 1.008 2.016 2.52 3.024 3.024 15.622 14.11 35.276 22.677 57.449 22.677zM597.165 666.709v0h-511.496c0 0-0.504-0.504-0.504-0.504v-643.024h0.504c0-0.504 0-0.504 0-1.008 0 0 416.756 0 511.496 0v0.504c0 0 0.504 0.504 0.504 0.504v643.024h-0.504c0 0.504 0 0.504 0 0.504zM597.165 667.213c0 0 0 0 0-0.504v0.504zM340.661 718.614v155.213c0 23.181 10.079 44.85 25.701 59.969l-0.504 0.504c15.622 15.118 36.787 24.693 60.472 24.693h512c23.181 0 44.346-9.575 59.969-25.197 15.622-15.118 25.701-36.787 25.701-59.969v-644.535c0-23.181-10.079-44.85-25.197-60.472-15.622-15.118-37.291-25.197-60.472-25.197h-291.78v85.669h291.78c0 0 0 0 0 0s0 0 0 0v644.031h-512v-154.709h-85.669zM174.362 508.976h337.134v-85.669h-337.134zM174.362 355.276h337.134v-85.669h-337.134z" />
<glyph unicode="&#xe92b;" glyph-name="download" d="M1024 246.929v-252.976c0-21.669-9.071-41.827-23.685-55.937-14.11-14.614-34.268-23.685-55.937-23.685h-864.756c-21.669 0-41.827 9.071-55.937 23.685-14.614 14.11-23.685 34.268-23.685 55.937v252.976h85.669v-246.929h852.661v246.929h85.669zM470.173 938.835h84.157v-709.039h-84.157v709.039zM793.197 440.441l-281.701-281.701-280.693 280.693 60.472 60.472 220.22-220.22 221.228 221.228z" />
<glyph unicode="&#xe92c;" glyph-name="edit" d="M750.866 354.268v-418.268h-750.866v1024h750.866v-315.969l-85.165-65.512v295.811h-580.535v-852.661h580.535v267.087zM170.331 789.165h409.197v-85.669h-409.197zM170.835 622.866h408.693v-85.669h-408.693zM442.961 407.181l-97.764-182.425-40.315-31.244 36.283-46.866 40.315 31.244 201.575 47.37 440.945 339.15-140.094 181.921-440.945-339.15zM526.614 289.26l-36.283 47.37 378.961 291.276 36.283-47.37-378.961-291.276z" />
<glyph unicode="&#xe92d;" glyph-name="editdeal" d="M750.362 354.268v-417.764h-749.858v920.189h154.709v-85.165h-69.543v-749.858h579.528v267.087l85.165 65.512zM595.15 856.693h155.213v-213.669l-85.165-65.008v194.016l-70.047-1.008v85.669zM442.961 407.685l-97.764-182.425-40.819-31.244 36.283-46.866 40.819 31.244 201.071 47.37 440.945 337.638-139.591 181.921-440.945-337.638zM526.11 289.764l-35.78 46.866 378.457 290.268 36.283-46.866-378.961-290.268zM244.409 959.496h262.047c48.882 0 88.693-38.803 88.693-85.669v-94.236c0-47.37-39.811-85.669-88.693-85.669h-262.047c-48.882 0-88.693 38.299-88.693 85.669v94.236c0 46.866 39.811 85.669 88.693 85.669zM240.882 779.591h269.102v94.236h-269.102v-94.236z" />
<glyph unicode="&#xe92e;" glyph-name="error" d="M576 921.6l439.467-883.2c4.267-12.8 8.533-21.333 8.533-34.133s-4.267-21.333-8.533-34.133c-8.533-8.533-17.067-17.067-25.6-25.6-8.533-4.267-21.333-8.533-34.133-8.533h-883.2c-12.8 0-25.6 4.267-34.133 8.533s-17.067 12.8-25.6 25.6c-8.533 8.533-8.533 21.333-8.533 34.133s0 21.333 8.533 34.133l439.467 883.2c4.267 12.8 12.8 21.333 25.6 29.867s25.6 8.533 38.4 8.533c12.8 0 25.6-4.267 38.4-8.533 12.8-8.533 21.333-17.067 25.6-29.867v0zM716.8 448l-204.8 409.6-418.133-836.267h836.267l-213.333 426.667zM554.667 614.4v-337.067h-85.333v337.067zM512 230.4c34.133 0 59.733-25.6 59.733-59.733s-25.6-59.733-59.733-59.733c-34.133 0-59.733 25.6-59.733 59.733s25.6 59.733 59.733 59.733z" />
<glyph unicode="&#xe92f;" glyph-name="errorbroader" horiz-adv-x="1145" d="M639.441 919.755l496.349-876.437c8.943-13.415 8.943-26.83 8.943-35.773 0-13.415-4.472-26.83-13.415-35.773s-17.886-17.886-26.83-22.358c-8.943-4.472-22.358-8.943-35.773-8.943h-988.227c-13.415 0-22.358 4.472-35.773 8.943-8.943 4.472-22.358 13.415-26.83 22.358-8.943 13.415-13.415 22.358-13.415 35.773s4.472 26.83 8.943 35.773l496.349 876.437c8.943 13.415 17.886 22.358 26.83 26.83v0c13.415 4.472 22.358 8.943 35.773 8.943s26.83-4.472 35.773-8.943v0c13.415-4.472 22.358-17.886 26.83-26.83zM804.891 441.293l-232.524 415.86-469.52-831.721h939.039l-236.996 415.86zM612.611 615.686v-335.371h-89.432v335.371zM567.895 231.127c35.773 0 62.603-26.83 62.603-62.603s-26.83-62.603-62.603-62.603c-35.773 0-62.603 26.83-62.603 62.603s26.83 62.603 62.603 62.603z" />
<glyph unicode="&#xe930;" glyph-name="expand" d="M1024 337.067v-324.267c0-21.333-8.533-38.4-21.333-55.467-12.8-12.8-34.133-21.333-55.467-21.333h-320v85.333h311.467v315.733h85.333zM401.067-64h-320c-21.333 0-38.4 8.533-55.467 21.333-12.8 12.8-21.333 34.133-21.333 55.467v320h85.333v-311.467h311.467v-85.333zM4.267 563.2v320c0 21.333 8.533 38.4 21.333 55.467 12.8 12.8 34.133 21.333 55.467 21.333h320v-85.333h-311.467v-311.467h-85.333zM631.467 960h320c21.333 0 38.4-8.533 55.467-21.333 12.8-12.8 21.333-34.133 21.333-55.467v-324.267h-85.333v311.467h-311.467v85.333zM512 712.533c72.533 0 140.8-29.867 187.733-76.8s76.8-115.2 76.8-187.733c0-72.533-29.867-140.8-76.8-187.733s-115.2-76.8-187.733-76.8c-72.533 0-140.8 29.867-187.733 76.8s-76.8 115.2-76.8 187.733c0 72.533 29.867 140.8 76.8 187.733s115.2 76.8 187.733 76.8zM640 576c-34.133 34.133-76.8 51.2-128 51.2s-93.867-21.333-128-51.2c-34.133-34.133-51.2-76.8-51.2-128s21.333-93.867 51.2-128c34.133-34.133 76.8-51.2 128-51.2s93.867 21.333 128 51.2c34.133 34.133 51.2 76.8 51.2 128s-21.333 93.867-51.2 128zM72.533 947.2l302.933-302.933-59.733-59.733-302.933 302.933 59.733 59.733zM704 315.733l307.2-307.2-59.733-59.733-307.2 307.2 59.733 59.733zM1011.2 887.467l-307.2-307.2-59.733 59.733 307.2 307.2 59.733-59.733zM384 256l-307.2-307.2-59.733 59.733 307.2 307.2 59.733-59.733z" />
<glyph unicode="&#xe931;" glyph-name="export" d="M878.933 89.6c-46.933-46.933-102.4-85.333-166.4-110.933-59.733-25.6-128-38.4-196.267-38.4-140.8 0-268.8 55.467-362.667 149.333s-149.333 221.867-149.333 362.667c0 140.8 55.467 268.8 149.333 362.667s221.867 149.333 362.667 149.333c68.267 0 136.533-12.8 196.267-38.4 64-25.6 119.467-64 166.4-110.933l-59.733-59.733c-38.4 38.4-85.333 72.533-136.533 93.867s-106.667 34.133-162.133 34.133c-119.467 0-226.133-46.933-302.933-123.733s-123.733-183.467-123.733-302.933c0-119.467 46.933-226.133 123.733-302.933s183.467-123.733 302.933-123.733c59.733 0 115.2 12.8 166.4 34.133s98.133 55.467 140.8 93.867l59.733-59.733zM840.533 234.667l162.133 166.4c12.8 17.067 21.333 34.133 21.333 55.467s-8.533 38.4-21.333 55.467v0l-162.133 157.867-59.733-59.733 119.467-119.467h-456.533v-85.333h448l-110.933-115.2 59.733-59.733z" />
<glyph unicode="&#xe932;" glyph-name="eye" d="M512 960c140.8 0 268.8-55.467 362.667-149.333s149.333-221.867 149.333-362.667c0-140.8-55.467-268.8-149.333-362.667s-221.867-149.333-362.667-149.333c-140.8 0-268.8 55.467-362.667 149.333s-149.333 221.867-149.333 362.667c0 140.8 55.467 268.8 149.333 362.667s221.867 149.333 362.667 149.333zM814.933 750.933c-76.8 76.8-183.467 123.733-302.933 123.733s-226.133-46.933-302.933-123.733c-76.8-76.8-123.733-183.467-123.733-302.933s46.933-226.133 123.733-302.933c76.8-76.8 183.467-123.733 302.933-123.733s226.133 46.933 302.933 123.733c76.8 76.8 123.733 183.467 123.733 302.933s-46.933 226.133-123.733 302.933zM516.267 704c72.533 0 145.067-17.067 217.6-55.467 72.533-34.133 140.8-89.6 213.333-157.867 12.8-12.8 17.067-25.6 17.067-42.667s-4.267-29.867-17.067-42.667c-68.267-68.267-140.8-123.733-213.333-157.867-72.533-38.4-145.067-55.467-217.6-55.467s-145.067 17.067-217.6 55.467c-72.533 34.133-140.8 89.6-213.333 162.133-12.8 12.8-17.067 25.6-17.067 42.667s4.267 29.867 17.067 42.667c68.267 68.267 140.8 123.733 213.333 157.867 72.533 38.4 145.067 55.467 217.6 55.467zM704 584.533c-64 29.867-123.733 46.933-187.733 46.933-59.733 0-123.733-17.067-183.467-46.933s-123.733-76.8-183.467-136.533c59.733-59.733 123.733-106.667 183.467-136.533 64-29.867 123.733-46.933 187.733-46.933 59.733 0 123.733 17.067 183.467 46.933s123.733 76.8 183.467 136.533c-59.733 59.733-123.733 106.667-183.467 136.533zM516.267 640c25.6 0 55.467-4.267 76.8-17.067-55.467 0-102.4-46.933-102.4-106.667s46.933-106.667 106.667-106.667c51.2 0 93.867 38.4 102.4 85.333 4.267-17.067 8.533-34.133 8.533-51.2 0-106.667-85.333-192-192-192s-192 85.333-192 192c0 106.667 85.333 192 192 192z" />
<glyph unicode="&#xe933;" glyph-name="fastreport" d="M512 960c140.8 0 268.8-55.467 362.667-149.333s149.333-221.867 149.333-362.667c0-140.8-55.467-268.8-149.333-362.667s-221.867-149.333-362.667-149.333c-140.8 0-268.8 55.467-362.667 149.333s-149.333 221.867-149.333 362.667c0 140.8 55.467 268.8 149.333 362.667s221.867 149.333 362.667 149.333zM814.933 750.933c-76.8 76.8-183.467 123.733-302.933 123.733s-226.133-46.933-302.933-123.733c-76.8-76.8-123.733-183.467-123.733-302.933s46.933-226.133 123.733-302.933c76.8-76.8 183.467-123.733 302.933-123.733s226.133 46.933 302.933 123.733c76.8 76.8 123.733 183.467 123.733 302.933s-46.933 226.133-123.733 302.933zM759.467 576h-247.467v85.333h247.467zM759.467 405.333h-494.933v85.333h494.933zM759.467 234.667h-494.933v85.333h494.933zM968.533 776.533l-123.733 123.733 59.733 59.733 123.733-119.467zM-4.267 840.533l123.733 119.467 59.733-59.733-123.733-123.733z" />
<glyph unicode="&#xe934;" glyph-name="fastreport2" d="M669.867 448h354.133v-85.333h-354.133v85.333zM1024 234.667h-1024v-85.333h1024zM1024 21.333h-1024v-85.333h1024zM302.933 960c85.333 0 157.867-34.133 213.333-89.6s89.6-132.267 89.6-213.333c0-85.333-34.133-157.867-89.6-213.333s-132.267-89.6-213.333-89.6c-85.333 0-157.867 34.133-213.333 89.6s-89.6 132.267-89.6 213.333c0 85.333 34.133 157.867 89.6 213.333s132.267 89.6 213.333 89.6zM456.533 810.667c-38.4 38.4-93.867 64-153.6 64s-115.2-25.6-153.6-64c-38.4-38.4-64-93.867-64-153.6s25.6-115.2 64-153.6c38.4-38.4 93.867-64 153.6-64s115.2 25.6 153.6 64c38.4 38.4 64 93.867 64 153.6s-25.6 115.2-64 153.6zM264.533 691.2h-115.2v-85.333h200.533v204.8h-85.333z" />
<glyph unicode="&#xe935;" glyph-name="favourite" d="M484.283 145.638c9.071 5.039 18.142 7.055 27.717 7.055s18.646-2.016 27.717-7.055v0c36.283-18.142 73.071-38.803 106.835-57.449 76.094-42.835 130.52-73.071 139.591-66.52v0c23.685 17.134 0 92.22-19.654 156.22-21.165 67.528-39.307 126.992-6.551 162.268v-0.504c23.181 25.701 47.874 49.386 72.567 72.567 55.433 52.913 108.85 103.811 105.827 129.008h0.504c-5.039 29.228-87.685 38.299-167.307 47.37-32.756 3.528-65.008 7.055-94.236 12.598v0c-47.37 9.071-68.031 68.031-90.709 134.551-22.173 63.496-47.37 137.071-77.102 137.071-10.583 0-36.283-56.945-72.567-136.567-15.118-33.764-31.748-70.047-51.402-109.858v-0.504c-15.622-30.236-63.496-34.268-123.465-39.811-72.567-6.047-172.85-14.614-176.882-36.787-5.039-27.717 55.433-86.173 114.394-143.622 23.181-22.677 45.858-44.85 65.512-66.016 32.252-35.276 14.11-94.236-7.055-161.764-20.157-64-43.339-138.583-19.654-156.22v0c8.567-6.551 62.992 23.685 138.583 66.016 33.764 18.646 71.055 39.307 107.339 57.953v0zM605.228 13.606c-27.717 15.622-57.953 32.252-93.228 50.394-35.276-18.142-65.512-35.276-93.732-50.394-103.811-58.457-177.89-99.78-230.803-60.472v0c-72.063 53.921-39.307 159.748-11.087 249.953 13.606 42.835 26.709 78.11 26.205 79.118h-0.504c-18.646 20.157-40.315 41.323-61.984 62.488-75.087 73.071-151.685 147.654-138.583 219.717 15.622 86.173 153.197 98.268 252.976 106.835 56.945 5.039 65.512 7.055 68.031 13.102 5.543 14.614 16.126 40.315 36.787 86.677 49.386 108.85 84.661 187.465 150.173 187.465 90.205 0 126.488-105.323 157.732-195.024 14.11-41.827 24.693-78.11 25.701-78.614 26.205-5.039 56.441-8.063 87.685-11.591 112.882-12.598 230.299-25.197 242.394-121.449v-0.504c8.063-67.528-60.472-133.039-132.031-200.567-24.189-23.685-49.386-46.866-68.535-68.535h-0.504c-0.504-1.008 12.598-36.787 25.701-79.622 28.22-90.205 60.976-196.031-10.583-249.449v0c-52.913-39.307-128 2.52-231.811 60.472z" />
<glyph unicode="&#xe936;" glyph-name="filter" d="M616.819 52.409l-233.827-112.882v465.638l-327.559 277.669c-15.118 11.087-27.717 22.677-37.291 36.283-11.591 16.63-18.142 34.772-17.638 57.449h-0.504v91.213c0 25.701 10.583 49.386 27.717 66.016 16.63 17.134 39.811 27.717 66.016 27.717h836.535c26.205 0 49.386-10.583 66.016-27.717 17.134-16.63 27.717-40.315 27.717-66.016v-91.213h-0.504c0.504-22.677-6.047-40.819-17.638-57.449-9.575-13.606-22.173-25.197-37.291-36.283l-327.559-277.669v-341.165l-24.189-11.591zM468.157 75.591l87.685 41.827v327.055c120.441 102.299 240.378 205.606 361.323 306.394 8.567 6.551 15.622 12.094 19.15 17.134 1.512 2.52 2.52 5.039 2.52 8.567h-0.504v91.213c0 2.52-0.504 4.535-2.016 6.047s-3.528 2.016-6.047 2.016h-836.535c-2.52 0-4.535-0.504-6.047-2.016s-2.016-3.528-2.016-6.047v-91.213h-0.504c0-3.528 1.008-6.047 2.52-8.567 3.528-5.039 10.583-10.583 19.15-17.134 120.945-100.787 240.882-204.094 361.323-306.394v-368.882z" />
<glyph unicode="&#xe937;" glyph-name="filters" d="M0 853.333h140.8v-85.333h-140.8v85.333zM384 853.333h640v-85.333h-640v85.333zM256 960c42.667 0 81.067-17.067 106.667-42.667s42.667-64 42.667-106.667c0-42.667-17.067-76.8-42.667-106.667v0c-25.6-25.6-64-42.667-106.667-42.667s-81.067 17.067-106.667 42.667c-25.6 25.6-42.667 64-42.667 106.667s17.067 76.8 42.667 106.667v0c25.6 25.6 64 42.667 106.667 42.667zM302.933 857.6c-12.8 12.8-29.867 17.067-46.933 17.067s-34.133-8.533-46.933-17.067v0c-12.8-12.8-17.067-29.867-17.067-46.933s8.533-34.133 17.067-46.933c12.8-12.8 29.867-17.067 46.933-17.067s34.133 8.533 46.933 17.067c12.8 12.8 17.067 29.867 17.067 46.933s-8.533 34.133-17.067 46.933zM0 128h140.8v-85.333h-140.8v85.333zM384 128h640v-85.333h-640v85.333zM256 234.667c42.667 0 81.067-17.067 106.667-42.667s42.667-64 42.667-106.667c0-42.667-17.067-81.067-42.667-106.667v0c-25.6-25.6-64-42.667-106.667-42.667s-81.067 17.067-106.667 42.667c-25.6 25.6-42.667 64-42.667 106.667s17.067 76.8 42.667 106.667v0c25.6 25.6 64 42.667 106.667 42.667zM302.933 132.267c-12.8 12.8-29.867 17.067-46.933 17.067s-34.133-8.533-46.933-17.067v0c-12.8-12.8-17.067-29.867-17.067-46.933s8.533-34.133 17.067-46.933c12.8-12.8 29.867-17.067 46.933-17.067s34.133 8.533 46.933 17.067c12.8 12.8 17.067 29.867 17.067 46.933s-8.533 34.133-17.067 46.933zM1024 405.333h-140.8v85.333h140.8v-85.333zM640 405.333h-640v85.333h640v-85.333zM768 512c-17.067 0-34.133-8.533-46.933-17.067v0c-12.8-12.8-17.067-29.867-17.067-46.933s8.533-34.133 17.067-46.933c12.8-12.8 29.867-17.067 46.933-17.067s34.133 8.533 46.933 17.067c12.8 12.8 17.067 29.867 17.067 46.933s-8.533 34.133-17.067 46.933c-12.8 12.8-29.867 17.067-46.933 17.067zM661.333 554.667v0c25.6 25.6 64 42.667 106.667 42.667s81.067-17.067 106.667-42.667c25.6-25.6 42.667-64 42.667-106.667s-17.067-81.067-42.667-106.667v0c-25.6-25.6-64-42.667-106.667-42.667s-81.067 17.067-106.667 42.667c-25.6 25.6-42.667 64-42.667 106.667s17.067 76.8 42.667 106.667z" />
<glyph unicode="&#xe938;" glyph-name="filtersrevert" d="M1024 853.333h-140.8v-85.333h140.8v85.333zM640 853.333h-640v-85.333h640v85.333zM768 960c-42.667 0-81.067-17.067-106.667-42.667s-42.667-64-42.667-106.667c0-42.667 17.067-81.067 42.667-106.667v0c25.6-25.6 64-42.667 106.667-42.667s81.067 17.067 106.667 42.667c25.6 25.6 42.667 64 42.667 106.667s-17.067 76.8-42.667 106.667v0c-25.6 25.6-64 42.667-106.667 42.667zM721.067 857.6c12.8 12.8 29.867 17.067 46.933 17.067s34.133-8.533 46.933-17.067v0c12.8-12.8 17.067-29.867 17.067-46.933s-8.533-34.133-17.067-46.933c-12.8-12.8-29.867-17.067-46.933-17.067s-34.133 8.533-46.933 17.067c-12.8 12.8-17.067 29.867-17.067 46.933s8.533 34.133 17.067 46.933zM1024 128h-140.8v-85.333h140.8v85.333zM640 128h-640v-85.333h640v85.333zM768 234.667c-42.667 0-81.067-17.067-106.667-42.667s-42.667-64-42.667-106.667c0-42.667 17.067-76.8 42.667-106.667v0c25.6-25.6 64-42.667 106.667-42.667s81.067 17.067 106.667 42.667c25.6 25.6 42.667 64 42.667 106.667s-17.067 76.8-42.667 106.667v0c-25.6 25.6-64 42.667-106.667 42.667zM721.067 132.267c12.8 12.8 29.867 17.067 46.933 17.067s34.133-8.533 46.933-17.067v0c12.8-12.8 17.067-29.867 17.067-46.933s-8.533-34.133-17.067-46.933c-12.8-12.8-29.867-17.067-46.933-17.067s-34.133 8.533-46.933 17.067c-12.8 12.8-17.067 29.867-17.067 46.933s8.533 34.133 17.067 46.933zM0 405.333h140.8v85.333h-140.8v-85.333zM384 405.333h640v85.333h-640v-85.333zM256 512c17.067 0 34.133-8.533 46.933-17.067v0c12.8-12.8 17.067-29.867 17.067-46.933s-8.533-34.133-17.067-46.933c-12.8-12.8-29.867-17.067-46.933-17.067s-34.133 8.533-46.933 17.067c-12.8 12.8-17.067 29.867-17.067 46.933s8.533 34.133 17.067 46.933c12.8 12.8 29.867 17.067 46.933 17.067zM362.667 554.667v0c-25.6 25.6-64 42.667-106.667 42.667s-81.067-17.067-106.667-42.667c-25.6-25.6-42.667-64-42.667-106.667s17.067-81.067 42.667-106.667v0c25.6-25.6 64-42.667 106.667-42.667s81.067 17.067 106.667 42.667c25.6 25.6 42.667 64 42.667 106.667s-17.067 76.8-42.667 106.667z" />
<glyph unicode="&#xe939;" glyph-name="house" d="M84.157 960c-46.362 0-84.157-37.795-84.157-84.157v-939.843h285.732v170.331h85.165v-170.331h286.236v939.843c0 46.362-38.299 84.157-84.661 84.157h-488.315zM89.701 358.299h477.732v-85.165h-477.732v85.165zM89.701 870.299h477.732v-85.165h-477.732v85.165zM89.701 699.969h477.732v-85.669h-477.732v85.669zM89.701 529.134h477.732v-85.165h-477.732v85.165zM657.134 614.803h282.709c46.362 0 84.157-37.795 84.157-84.157v-594.646h-366.866v337.134h294.803v85.165h-294.803v85.669h294.803v85.165h-294.803v85.669z" />
<glyph unicode="&#xe93a;" glyph-name="houseno" d="M76.8 960h537.6c21.333 0 42.667-8.533 55.467-21.333v0c12.8-12.8 21.333-34.133 21.333-55.467v-947.2h-691.2v947.2c0 21.333 8.533 42.667 21.333 55.467v0c17.067 12.8 34.133 21.333 55.467 21.333zM605.867 874.667h-520.533v-853.333h520.533v853.333zM665.6 631.467h298.667c17.067 0 34.133-8.533 42.667-21.333 12.8-12.8 17.067-25.6 17.067-42.667v-631.467h-375.467v85.333h290.133v524.8h-273.067v85.333zM162.133 789.333h256v-85.333h-256zM162.133 618.667h256v-85.333h-256zM162.133 448h256v-85.333h-256zM418.133-46.933v230.4h85.333v-230.4zM622.933 460.8h230.4v-85.333h-230.4zM622.933 290.133h230.4v-85.333h-230.4zM106.667 947.2l904.533-938.667-59.733-59.733-904.533 938.667z" />
<glyph unicode="&#xe93b;" glyph-name="import" d="M874.667 89.6c-46.933-46.933-102.4-85.333-166.4-110.933-59.733-25.6-128-38.4-196.267-38.4-140.8 0-268.8 55.467-362.667 149.333s-149.333 221.867-149.333 362.667c0 140.8 55.467 268.8 149.333 362.667s221.867 149.333 362.667 149.333c68.267 0 136.533-12.8 196.267-38.4 64-25.6 119.467-64 166.4-110.933l-59.733-59.733c-38.4 38.4-85.333 72.533-136.533 93.867s-106.667 34.133-162.133 34.133c-119.467 0-226.133-46.933-302.933-123.733s-123.733-183.467-123.733-302.933c0-119.467 46.933-226.133 123.733-302.933s183.467-123.733 302.933-123.733c59.733 0 115.2 12.8 166.4 34.133s98.133 55.467 140.8 93.867l59.733-59.733zM627.2 234.667l-162.133 166.4c-12.8 17.067-21.333 34.133-21.333 55.467s8.533 38.4 21.333 55.467v0l162.133 157.867 59.733-59.733-119.467-119.467h456.533v-85.333h-448l110.933-115.2-59.733-59.733z" />
<glyph unicode="&#xe93c;" glyph-name="info" d="M512 960c140.8 0 268.8-55.467 362.667-149.333s149.333-221.867 149.333-362.667c0-140.8-55.467-268.8-149.333-362.667s-221.867-149.333-362.667-149.333c-140.8 0-268.8 55.467-362.667 149.333s-149.333 221.867-149.333 362.667c0 140.8 55.467 268.8 149.333 362.667s221.867 149.333 362.667 149.333zM814.933 750.933c-76.8 76.8-183.467 123.733-302.933 123.733s-226.133-46.933-302.933-123.733c-76.8-76.8-123.733-183.467-123.733-302.933s46.933-226.133 123.733-302.933c76.8-76.8 183.467-123.733 302.933-123.733s226.133 46.933 302.933 123.733c76.8 76.8 123.733 183.467 123.733 302.933s-46.933 226.133-123.733 302.933zM554.667 789.333v-469.333h-85.333v469.333zM512 256c34.133 0 64-29.867 64-64s-29.867-64-64-64c-34.133 0-64 29.867-64 64s29.867 64 64 64z" />
<glyph unicode="&#xe93d;" glyph-name="insurance" d="M516.535 806.803c-50.394-61.48-112.378-103.307-183.937-125.984-74.079-23.685-158.236-25.197-249.449-5.543 2.016-125.48 18.646-235.843 60.976-332.598 47.37-108.85 128-201.575 256.504-281.197 22.173-13.606 43.843-24.189 64.504-31.244 18.142-6.047 34.772-9.575 49.386-9.071s31.244 4.031 48.378 10.079c19.654 7.055 40.315 17.638 61.48 30.74 130.016 80.63 210.142 174.866 257.008 284.22 41.323 96.756 57.449 206.614 59.465 329.071-88.693-19.654-169.323-18.142-240.882 4.535-70.551 22.173-132.031 64.504-183.433 126.992zM307.402 761.953c69.543 22.173 128 68.535 172.346 140.094l35.276 57.953 36.787-56.945c47.37-73.575 105.323-120.441 173.354-142.11 69.543-22.173 151.685-18.142 245.921 10.079l53.417 16.126 1.008-56.441c3.024-155.717-13.102-294.299-66.016-417.764-53.417-124.976-144.126-232.819-290.772-323.528-25.701-16.126-51.906-28.724-77.102-38.299-25.701-9.071-50.898-14.11-75.087-15.118-25.197-0.504-51.906 4.031-78.614 13.606-26.709 8.567-54.425 22.173-82.142 39.307-144.126 89.701-235.339 195.024-289.764 320-53.417 122.457-70.551 262.551-67.528 421.795l1.008 56.441 53.417-16.126c95.748-28.724 181.921-31.748 254.488-9.071zM557.354 834.52v-865.26h-85.165v865.26zM81.638 476.724c146.142-18.646 291.78-27.717 437.417-27.717 145.134 0 288.756 9.071 430.866 27.717l10.583-84.157c-146.646-19.15-293.795-28.724-441.449-28.724s-296.819 9.575-448 28.724l10.583 84.157z" />
<glyph unicode="&#xe93e;" glyph-name="left" d="M397.606 337.638l-168.315 168.315 455.559 455.559 168.315-168.315zM853.165 103.307l-168.315-168.819-514.016 514.016 168.315 168.315z" />
<glyph unicode="&#xe93f;" glyph-name="letter" d="M656.126 930.268l368.378-368.378-626.394-626.394-398.614 398.614 626.394 626.394 30.236-30.236zM903.559 561.89l-277.669 277.669-505.449-505.449 277.669-277.669 505.449 505.449zM682.835 892.976c-2.52-22.173-4.031-35.276-5.543-49.386-10.583-93.732-25.197-220.22-48.378-321.512-15.622-69.039-28.724-107.339-57.953-136.063-29.228-28.22-67.024-38.803-132.535-53.417-108.85-23.685-225.26-37.795-336.126-51.402l-35.276-4.031-10.079 84.661 35.276 4.031c108.85 13.102 222.236 26.709 328.063 50.394v0c50.394 10.583 78.11 17.638 91.717 31.244 14.11 13.102 22.173 40.819 34.268 93.732 21.669 95.748 35.78 219.717 46.362 311.937l5.543 49.89 84.661-10.079zM941.858 551.811l-350.74-65.008-15.118 83.654 350.74 65.008zM324.535 33.26l65.008 350.74 83.654-15.118-65.008-350.74z" />
<glyph unicode="&#xe940;" glyph-name="linkage" d="M524.8 430.933c-8.533-17.067-4.267-38.4 12.8-46.933l38.4-25.6 17.067 25.6c25.6 38.4 34.133 85.333 25.6 123.733-8.533 42.667-29.867 81.067-68.267 106.667l-42.667 25.6c-38.4 25.6-81.067 34.133-123.733 25.6v0c-42.667-8.533-81.067-34.133-106.667-72.533l-251.733-375.467c-25.6-38.4-34.133-85.333-25.6-123.733 8.533-42.667 29.867-81.067 68.267-106.667l42.667-25.6c38.4-25.6 81.067-34.133 123.733-25.6v0c42.667 8.533 81.067 34.133 106.667 72.533l140.8 209.067-68.267 46.933-140.8-209.067c-12.8-17.067-34.133-29.867-51.2-34.133v0c-21.333-4.267-42.667 0-64 12.8l-42.667 25.6c-17.067 12.8-29.867 34.133-34.133 51.2-4.267 21.333 0 42.667 12.8 64l251.733 375.467c12.8 17.067 34.133 29.867 51.2 34.133 21.333 4.267 42.667 0 64-12.8l42.667-25.6c17.067-12.8 29.867-34.133 34.133-51.2 4.267-21.333-4.267-42.667-12.8-64zM499.2 465.067c8.533 17.067 4.267 38.4-12.8 46.933l-38.4 25.6-17.067-25.6c-25.6-38.4-34.133-85.333-25.6-123.733 8.533-42.667 29.867-81.067 68.267-106.667l42.667-25.6c38.4-25.6 81.067-34.133 123.733-25.6v0c42.667 8.533 81.067 34.133 106.667 72.533l251.733 375.467c25.6 38.4 34.133 85.333 25.6 123.733-8.533 42.667-29.867 81.067-68.267 106.667l-42.667 25.6c-38.4 25.6-81.067 34.133-123.733 25.6v0c-42.667-8.533-81.067-34.133-106.667-72.533l-140.8-209.067 68.267-46.933 140.8 209.067c12.8 17.067 34.133 29.867 51.2 34.133v0c21.333 4.267 42.667 0 64-12.8l42.667-25.6c17.067-12.8 29.867-34.133 34.133-51.2 4.267-21.333 0-42.667-12.8-64l-251.733-375.467c-12.8-17.067-34.133-29.867-51.2-34.133-21.333-4.267-42.667 0-64 12.8l-38.4 25.6c-17.067 12.8-29.867 34.133-34.133 51.2-4.267 21.333 4.267 42.667 12.8 64z" />
<glyph unicode="&#xe941;" glyph-name="meeting" d="M631.433-42.835v475.717c0 1.512 0 2.52 0 3.528 3.024 88.189 76.094 159.244 164.787 159.244h62.488c89.701 0 162.772-72.063 165.291-160.756 0-0.504 0-1.008 0-2.016v-475.717h-392.567zM794.709 42.835h144.126v391.055c0 42.835-35.276 78.11-78.11 78.11h-66.016c-42.835 0-78.11-35.276-78.11-78.11v-391.055h78.11zM919.685 804.283c0 25.197-10.079 48.378-26.709 65.008s-39.811 26.709-65.008 26.709c-25.197 0-48.378-10.079-65.008-26.709s-26.709-39.811-26.709-65.008c0-25.197 10.079-48.378 26.709-65.008s39.811-26.709 65.008-26.709c25.197 0 48.378 10.079 65.008 26.709s26.709 39.811 26.709 65.008zM953.449 929.764c31.748-32.252 51.906-76.598 51.906-125.48s-20.157-93.228-51.906-125.48c-32.252-31.748-76.598-51.906-125.48-51.906s-93.228 20.157-125.48 51.906c-31.748 32.252-51.906 76.598-51.906 125.48s20.157 93.228 51.906 125.48c32.252 31.748 76.598 51.906 125.48 51.906s93.228-20.157 125.48-51.906zM0-42.331v475.717c0 1.008 0 2.016 0 3.024 3.024 88.189 76.094 159.244 165.291 159.244h62.488c89.197 0 162.268-71.559 164.787-160.756 0-0.504 0-1.008 0-1.512v-475.717h-392.567zM163.276 42.835h144.126v391.055c0 42.835-35.276 78.11-78.11 78.11h-66.016c-42.835 0-78.11-35.276-78.11-78.11v-391.055h78.11zM288.252 804.283c0 25.197-10.079 48.378-26.709 65.008s-39.811 26.709-65.008 26.709c-25.197 0-48.378-10.079-65.008-26.709s-26.709-39.811-26.709-65.008c0-25.197 10.079-48.378 26.709-65.008s39.811-26.709 65.008-26.709c25.197 0 48.378 10.079 65.008 26.709s26.709 39.811 26.709 65.008zM322.016 929.764c31.748-32.252 51.906-76.598 51.906-125.48s-20.157-93.228-51.906-125.48c-32.252-31.748-76.598-51.906-125.48-51.906s-93.228 20.157-125.48 51.906c-31.748 32.252-51.906 76.598-51.906 125.48s20.157 93.228 51.906 125.48c32.252 31.748 76.598 51.906 125.48 51.906s93.228-20.157 125.48-51.906zM158.74 537.701c2.52-7.559 5.039-15.118 8.063-22.677 26.205-67.024 83.654-138.079 160.756-185.449 76.094-46.866 171.339-69.543 273.134-40.819 11.087 3.024 22.677 7.055 33.764 11.591l31.244-79.622c-14.11-5.039-28.22-10.079-41.827-14.11-128-36.283-246.425-8.063-340.661 49.89-93.732 57.449-163.78 144.63-196.031 227.276-4.031 10.583-7.559 20.661-10.079 30.74l81.638 23.181z" />
<glyph unicode="&#xe942;" glyph-name="merge" d="M76.598 960.504h614.803c21.165 0 40.315-8.567 53.921-22.677h0.504c13.606-14.11 22.173-33.26 22.173-53.921v-179.402h179.402c21.165 0 40.315-9.071 54.425-22.677v0c13.606-14.11 22.173-33.26 22.173-53.921v-615.811c0-20.661-8.567-39.811-22.173-53.921h-0.504c-13.606-14.11-32.756-22.677-53.921-22.677h-614.803c-21.165 0-40.315 8.567-54.425 22.677h0.504c-14.11 14.11-22.677 33.26-22.677 53.921v179.402h-179.402c-21.165 0-40.315 9.071-53.921 22.677h-0.504c-13.606 14.11-22.173 33.26-22.173 53.921v615.811c0 20.661 8.567 40.315 22.173 53.921 14.11 14.11 33.26 22.677 54.425 22.677zM682.835 874.835h-597.669v-597.669h256v-256h597.669v597.669h-256v256zM256 376.945h85.165v-114.394h-85.165zM256 533.165h85.165v-85.669h-85.165v85.669zM256 704.504h85.165v-85.669h-85.165v85.669zM426.835 704.504h85.165v-85.669h-85.165v85.669zM597.165 704.504h110.362v-85.669h-110.362v85.669zM682.835 835.024h85.165v-131.024h-85.165v131.024zM682.835 633.449h85.165v-99.78h-85.165v99.78zM682.835 277.165h85.165v-85.669h-85.165v85.669zM512 277.165h85.165v-85.669h-85.165v85.669zM325.543 277.165h100.787v-85.165h-100.787zM682.835 448h85.165v-85.669h-85.165v85.669z" />
<glyph unicode="&#xe943;" glyph-name="nextstep" d="M50.394 857.701h200.063v-76.598c4.031-1.008 256.504-1.008 260.535 0v76.598h246.929v-921.701h-750.362v921.701h42.835zM165.795 772.031h-73.071v-750.362h580.031v750.362h-77.102c-2.016-19.654-11.087-37.795-24.693-51.402v-0.504c-15.622-15.118-36.787-24.693-60.472-24.693h-259.528c-23.685 0-44.85 9.575-60.472 24.693v0.504c-13.606 13.606-22.677 31.748-24.693 51.402zM289.764 960h181.417c28.22 0 54.425-5.039 74.583-13.606 31.244-12.598 50.394-34.772 50.394-62.992v0-111.874c0-28.22-19.15-50.394-50.394-62.992-20.157-8.567-46.362-13.606-74.079-13.606v0.504h-181.921v-0.504c-27.717 0-53.921 5.039-74.079 13.606-31.244 12.598-50.394 34.772-50.394 62.992v0 111.874c0 28.22 19.15 50.394 50.394 62.992 20.157 8.567 46.362 13.606 74.079 13.606zM471.181 874.331h-180.913c-16.126 0-30.236-2.016-39.811-5.543v-82.646c9.575-3.528 23.685-5.543 39.307-5.543v-0.504h181.921v0.504c15.622 0 29.732 2.016 39.307 5.543v82.646c-9.575 3.528-23.685 5.543-39.811 5.543zM380.976 486.803h544.756v-85.669h-544.756zM860.22 621.354l173.858-174.362-173.858-174.362-59.969 60.472 113.386 113.89-113.386 113.89z" />
<glyph unicode="&#xe944;" glyph-name="notbooked" d="M797.867 469.333c-76.8 0-243.2 0-384 0-72.533 0-140.8 0-187.733 0h-38.4l-4.267 38.4c0 12.8 0 55.467 0 89.6 0 8.533 0 12.8 0 34.133 0 89.6 38.4 174.933 98.133 230.4 59.733 59.733 140.8 98.133 230.4 98.133 81.067 0 157.867-29.867 217.6-81.067s98.133-123.733 110.933-204.8c0-8.533 0-17.067 4.267-21.333 0-8.533 0-17.067 0-21.333h-85.333c0 4.267 0 12.8 0 17.067s0 12.8 0 17.067c-8.533 59.733-38.4 110.933-81.067 149.333s-98.133 59.733-162.133 59.733c-68.267 0-128-25.6-170.667-72.533-42.667-42.667-72.533-106.667-72.533-170.667 0-4.267 0-12.8 0-34.133v-42.667c42.667 0 93.867 0 145.067 0 145.067 0 311.467 0 384 0v-85.333zM42.667 554.667h938.667c25.6 0 42.667-17.067 42.667-42.667v-533.333c0-25.6-17.067-42.667-42.667-42.667h-938.667c-25.6 0-42.667 17.067-42.667 42.667v533.333c0 25.6 17.067 42.667 42.667 42.667zM938.667 469.333h-853.333v-448h853.333v448zM512 396.8c51.2 0 89.6-42.667 89.6-89.6 0-51.2-42.667-89.6-89.6-89.6-51.2 0-89.6 42.667-89.6 89.6 0 51.2 42.667 89.6 89.6 89.6zM554.667 307.2v-174.933h-85.333v174.933z" />
<glyph unicode="&#xe945;" glyph-name="notification" d="M514.52 899.024l60.472 60.976 449.008-449.008-60.976-60.472zM454.047 52.409c-2.016 1.512-4.031 3.528-6.047 5.039l67.528-67.528-60.472-60.976-449.008 449.008 60.976 60.472 55.433-54.929c-2.52 2.52-4.535 4.535-6.047 6.551l143.118 143.118c10.583 10.583 25.701 14.614 39.307 11.591l111.874-20.157c1.008 0 2.52-0.504 4.031-1.008 4.535-1.008 8.567-1.008 11.591 0 1.512 0 3.024 1.008 4.031 2.016s2.016 2.52 2.52 4.535c1.008 4.031 1.008 9.071-0.504 14.11l-0.504 2.52-20.157 112.378c-2.52 14.11 2.016 28.22 11.591 37.291l169.827 170.835c16.63 16.63 43.339 16.63 60.472 0 16.63-16.63 16.63-43.339 0-60.472l-154.205-154.709 16.126-89.197c4.031-19.15 4.031-37.291 0-53.417-4.535-17.134-13.102-32.252-24.693-43.843-12.094-12.094-27.213-20.661-44.85-24.693-15.622-4.031-33.26-4.031-50.898 0l-90.709 16.126-127.496-126.992 328.063 0.504v0.504c-4.031 18.142-4.031 35.276-0.504 50.898 4.535 17.638 13.102 32.756 24.693 44.85 12.094 11.591 27.213 20.157 44.346 24.693 9.071 2.52 19.15 3.528 29.228 3.024l-10.583 1.512 151.685 6.551 126.992 126.992c17.134 16.63 43.843 16.63 60.472 0 16.63-17.134 16.63-43.843 0-60.472l-168.315-167.307c-9.575-11.087-24.189-17.134-39.811-14.11l-115.402 20.661c-5.039 1.512-10.079 1.512-13.606 0.504-2.016-0.504-3.528-1.512-4.535-2.016-1.008-1.008-2.016-2.52-2.52-4.535-0.504-3.024-0.504-6.551 0.504-11.591 0.504-1.512 1.008-3.024 1.008-4.031l20.157-111.874c3.024-13.606-1.008-28.724-11.591-39.307l-143.118-143.118zM176.882 329.575l-0.504-0.504 68.031-67.528-67.528 68.031z" />
<glyph unicode="&#xe946;" glyph-name="oldcopy" d="M85.333 750.933h512c21.333 0 42.667-8.533 59.733-25.6v0c17.067-17.067 25.6-38.4 25.6-59.733v-644.267c0-21.333-8.533-42.667-25.6-59.733v0c-17.067-17.067-38.4-25.6-59.733-25.6h-512c-21.333 0-42.667 8.533-59.733 25.6v0c-17.067 17.067-25.6 38.4-25.6 59.733v644.267c0 21.333 8.533 42.667 25.6 59.733v0c17.067 17.067 38.4 25.6 59.733 25.6zM597.333 665.6c0 0 0 0 0 0zM597.333 665.6c0 0 0 0 0 0zM597.333 665.6h-512v-644.267h512v644.267zM85.333 665.6v0 0 0zM597.333 665.6v0c0 0 0 0 0 0zM597.333 21.333c0 0 0 0 0 0v0zM597.333 21.333v0c0 0 0 0 0 0zM85.333 21.333v0 0 0zM85.333 21.333c0 0 0 0 0 0v0zM85.333 21.333v0c0 0 0 0 0 0zM85.333 665.6v0c0 0 0 0 0 0zM341.333 716.8v153.6c0 21.333 8.533 42.667 25.6 59.733v0c17.067 17.067 38.4 25.6 59.733 25.6h512c21.333 0 42.667-8.533 59.733-25.6v0c17.067-17.067 25.6-38.4 25.6-59.733v-644.267c0-21.333-8.533-42.667-25.6-59.733v0c-17.067-17.067-38.4-25.6-59.733-25.6h-290.133v85.333h290.133v644.267h-512v-153.6h-85.333zM426.667 870.4v0 0 0zM426.667 870.4v0c0 0 0 0 0 0zM938.667 870.4c0 0 0 0 0 0zM938.667 870.4c0 0 0 0 0 0zM938.667 870.4v0c0 0 0 0 0 0zM938.667 226.133c0 0 0 0 0 0v0zM938.667 226.133v0c0 0 0 0 0 0z" />
<glyph unicode="&#xe947;" glyph-name="oldexport" d="M750.933 315.733v-379.733h-750.933v921.6h243.2v-76.8h260.267v76.8h247.467v-285.867h-85.333v200.533h-76.8c0-21.333-12.8-38.4-25.6-51.2v0c-17.067-17.067-38.4-25.6-59.733-25.6h-260.267c-21.333 0-42.667 8.533-59.733 25.6v0c-12.8 12.8-21.333 29.867-25.6 51.2h-72.533v-750.933h580.267v294.4h85.333zM243.2 780.8v0 0zM243.2 780.8c0 0 0 0 0 0v0zM243.2 780.8c0 0 0 0 0 0zM243.2 960h260.267c21.333 0 42.667-8.533 59.733-25.6v0c17.067-17.067 25.6-38.4 25.6-59.733v-93.867c0-21.333-8.533-42.667-25.6-59.733v0c-17.067-17.067-38.4-25.6-59.733-25.6h-260.267c-21.333 0-42.667 8.533-59.733 25.6v0c-17.067 17.067-25.6 38.4-25.6 59.733v93.867c0 21.333 8.533 42.667 25.6 59.733v0c17.067 17.067 38.4 25.6 59.733 25.6zM503.467 874.667c0 0 0 0 0 0zM503.467 874.667c0 0 0 0 0 0zM503.467 874.667h-260.267v-93.867h260.267v93.867zM243.2 874.667v0 0 0zM503.467 874.667v0c0 0 0 0 0 0zM503.467 780.8c0 0 0 0 0 0v0zM503.467 780.8v0c0 0 0 0 0 0zM243.2 780.8v0 0 0zM243.2 780.8c0 0 0 0 0 0v0zM243.2 780.8v0c0 0 0 0 0 0zM243.2 874.667v0c0 0 0 0 0 0zM853.333 618.667l170.667-170.667-170.667-174.933-64 59.733 68.267 68.267h-486.4v85.333h494.933l-76.8 72.533z" />
<glyph unicode="&#xe948;" glyph-name="oldimport" d="M755.2 320v-379.733h-750.933v921.6h243.2v-76.8h260.267v76.8h247.467v-285.867h-85.333v200.533h-76.8c0-21.333-12.8-38.4-25.6-51.2v0c-17.067-17.067-38.4-25.6-59.733-25.6h-260.267c-21.333 0-42.667 8.533-59.733 25.6v0c-12.8 12.8-21.333 29.867-25.6 51.2h-72.533v-750.933h580.267v294.4h85.333zM247.467 785.067v0 0zM247.467 785.067c0 0 0 0 0 0v0zM247.467 785.067c0 0 0 0 0 0zM247.467 964.267h260.267c21.333 0 42.667-8.533 59.733-25.6v0c17.067-17.067 25.6-38.4 25.6-59.733v-93.867c0-21.333-8.533-42.667-25.6-59.733v0c-17.067-17.067-38.4-25.6-59.733-25.6h-260.267c-21.333 0-42.667 8.533-59.733 25.6v0c-17.067 17.067-25.6 38.4-25.6 59.733v93.867c0 21.333 8.533 42.667 25.6 59.733v0c17.067 17.067 38.4 25.6 59.733 25.6zM507.733 878.933c0 0 0 0 0 0zM507.733 878.933c0 0 0 0 0 0zM507.733 878.933h-260.267v-93.867h260.267v93.867zM247.467 878.933v0 0 0zM507.733 878.933v0c0 0 0 0 0 0zM507.733 785.067c0 0 0 0 0 0v0zM507.733 785.067v0c0 0 0 0 0 0zM247.467 785.067v0 0 0zM247.467 785.067c0 0 0 0 0 0v0zM247.467 785.067v0c0 0 0 0 0 0zM247.467 878.933v0c0 0 0 0 0 0zM546.133 622.933l-170.667-174.933 170.667-170.667 59.733 59.733-68.267 68.267h490.667v85.333h-494.933l72.533 72.533z" />
<glyph unicode="&#xe949;" glyph-name="payment" d="M10.079 320.504l8.567 31.244h1.008c33.764 95.244 93.228 169.827 165.795 224.252-58.961-6.551-124.472-21.165-184.945-39.811v84.157c85.669 32.252 205.102 53.417 334.11 62.992-32.252 36.283-55.433 84.661-61.984 145.638l84.661 9.071c7.055-65.512 40.819-108.85 83.654-130.016 22.173-11.591 46.866-17.134 71.559-17.134 24.189 0 48.882 5.543 71.055 17.134 42.835 21.669 77.102 65.008 84.157 130.52l84.661-9.071c-6.551-60.976-29.732-109.858-62.488-145.638 129.512-10.079 248.945-31.244 334.614-63.496v-84.157c-60.976 18.646-126.488 33.26-186.457 39.811 81.134-59.969 144.63-144.63 175.874-254.992v0c12.598-44.346 11.591-90.709 10.583-135.055-0.504-9.071-0.504-17.638-0.504-35.276 0-58.961-24.189-112.882-62.992-152.189-38.803-38.803-92.22-63.496-151.181-63.496h-595.654c-58.961 0-112.378 24.693-151.181 63.496-38.803 39.307-62.992 93.228-62.992 152.189 0 17.638 0 26.205-0.504 35.276-1.008 44.346-2.016 90.205 10.583 134.551v0 0zM271.622 530.646c-82.646-48.882-149.165-126.488-179.906-233.323l-0.504-3.024c-8.567-32.252-7.559-69.543-6.551-106.331 0.504-15.622 1.008-31.244 1.008-37.291 0-35.78 14.11-68.535 37.795-92.22 23.181-23.181 55.433-37.795 90.709-37.795h595.654c35.276 0 67.528 14.614 90.709 37.795 23.685 23.685 37.795 56.441 37.795 92.22 0 6.047 0.504 21.669 1.008 37.291 1.008 37.795 2.016 77.102-7.055 109.858-30.74 106.835-97.26 184.441-180.409 233.323-71.559 42.331-155.717 63.496-240.378 63.496-84.157 0-167.811-21.165-239.874-64v0zM422.803 842.583c0 9.071-3.528 17.134-9.575 23.181s-14.11 9.575-23.181 9.575c-9.071 0-17.638-3.528-23.181-9.575-6.047-5.543-9.575-14.11-9.575-23.181s3.528-17.134 9.575-23.181c6.047-6.047 14.11-9.575 23.181-9.575s17.638 3.528 23.181 9.071l0.504 0.504c5.543 5.543 9.071 14.11 9.071 23.181zM473.701 926.236c21.165-21.669 34.772-50.898 34.772-83.654 0-32.252-13.606-61.984-34.772-83.654v0c-21.669-21.165-51.402-34.772-83.654-34.772-32.756 0-61.984 13.606-83.654 34.772-21.165 21.669-34.772 50.898-34.772 83.654s13.606 61.984 34.772 83.654v0c21.669 21.165 50.898 34.772 83.654 34.772s61.984-13.606 83.654-34.772zM667.717 842.583c0 9.071-3.528 17.638-9.575 23.181-5.543 6.047-14.11 9.575-23.181 9.575s-17.134-3.528-23.181-9.575c-6.047-6.047-9.575-14.11-9.575-23.181s3.528-17.638 9.071-23.181l0.504-0.504c5.543-5.543 14.11-9.071 23.181-9.071s17.134 3.528 23.181 9.575c6.047 6.047 9.575 14.11 9.575 23.181zM718.614 926.236c21.165-21.669 34.772-50.898 34.772-83.654s-13.606-61.984-34.772-83.654c-21.669-21.165-50.898-34.772-83.654-34.772-32.252 0-61.984 13.606-83.654 34.772v0c-21.165 21.669-34.772 51.402-34.772 83.654 0 32.756 13.606 61.984 34.772 83.654 21.669 21.165 50.898 34.772 83.654 34.772s61.984-13.606 83.654-34.772v0z" />
<glyph unicode="&#xe94a;" glyph-name="picture" d="M42.835 955.969h938.331c23.685 0 42.835-19.15 42.835-42.835v-938.835c0-23.685-19.15-42.835-42.835-42.835h-938.331c-23.685 0-42.835 19.15-42.835 42.835v938.835c0 23.685 19.15 42.835 42.835 42.835zM938.331 870.299h-852.661v-853.165h852.661v853.165zM58.961 8.567l302.362 302.362 106.331-107.843 317.48 313.449 225.764-222.74-59.465-60.472-166.299 163.276-318.488-313.449-105.323 106.835-241.89-241.89zM471.181 938.331c39.811-94.74 41.323-179.906 17.134-249.449-18.646-52.913-51.402-96.252-92.724-127.496s-91.717-50.898-145.638-56.441c-75.591-7.559-157.732 13.102-231.307 69.039l51.402 67.528c55.433-41.827 116.409-57.449 171.843-51.906 37.795 4.031 73.071 17.638 102.299 39.811 28.724 21.669 50.898 51.402 63.496 87.181 17.638 50.898 16.126 115.402-15.118 188.472l78.614 33.26z" />
<glyph unicode="&#xe94b;" glyph-name="plan" d="M375.467 490.667h93.867v384h-384v-853.333h853.333v384h-384v-93.867h-85.333v93.867h-93.867v85.333zM554.667 490.667h469.333v-477.867c0-21.333-8.533-38.4-21.333-51.2s-34.133-21.333-51.2-21.333h-874.667c-21.333 0-38.4 8.533-51.2 21.333s-21.333 34.133-21.333 51.2v874.667c0 21.333 8.533 38.4 21.333 51.2s34.133 21.333 51.2 21.333h477.867v-469.333zM179.2 405.333h-93.867v85.333h93.867zM554.667 115.2v-136.533h-85.333v136.533z" />
<glyph unicode="&#xe94c;" glyph-name="play" d="M1024 448l-1024-512v1024l512-256z" />
<glyph unicode="&#xe94d;" glyph-name="preview" d="M512 960c140.8 0 268.8-55.467 362.667-149.333s149.333-221.867 149.333-362.667c0-140.8-55.467-268.8-149.333-362.667s-221.867-149.333-362.667-149.333c-140.8 0-268.8 55.467-362.667 149.333s-149.333 221.867-149.333 362.667c0 140.8 55.467 268.8 149.333 362.667s221.867 149.333 362.667 149.333zM814.933 750.933c-76.8 76.8-183.467 123.733-302.933 123.733s-226.133-46.933-302.933-123.733c-76.8-76.8-123.733-183.467-123.733-302.933s46.933-226.133 123.733-302.933c76.8-76.8 183.467-123.733 302.933-123.733s226.133 46.933 302.933 123.733c76.8 76.8 123.733 183.467 123.733 302.933s-46.933 226.133-123.733 302.933zM366.933 563.2c17.067 21.333 38.4 38.4 64 51.2s51.2 17.067 81.067 17.067c51.2 0 98.133-21.333 132.267-55.467s55.467-81.067 55.467-132.267c0-51.2-21.333-98.133-55.467-132.267s-81.067-55.467-132.267-55.467c-51.2 0-98.133 21.333-132.267 55.467s-55.467 81.067-55.467 132.267h85.333c0-25.6 12.8-51.2 29.867-68.267s42.667-29.867 68.267-29.867c25.6 0 51.2 12.8 68.267 29.867s29.867 42.667 29.867 68.267c0 25.6-12.8 51.2-29.867 68.267s-42.667 29.867-68.267 29.867c-17.067 0-29.867-4.267-42.667-8.533-12.8-8.533-25.6-17.067-34.133-29.867l-68.267 51.2zM38.4 482.133c157.867 123.733 315.733 187.733 473.6 187.733v0c157.867 0 315.733-64 473.6-187.733 17.067-12.8 21.333-42.667 8.533-59.733-4.267-4.267-4.267-4.267-8.533-8.533-157.867-123.733-311.467-187.733-469.333-187.733s-315.733 64-473.6 187.733c-17.067 12.8-21.333 42.667-8.533 59.733 0 4.267 4.267 4.267 8.533 8.533zM512 584.533v0c-123.733 0-247.467-46.933-375.467-136.533 128-89.6 251.733-136.533 375.467-136.533s247.467 46.933 375.467 136.533c-128 89.6-251.733 136.533-375.467 136.533z" />
<glyph unicode="&#xe94e;" glyph-name="print" d="M42.835 691.402h938.331c23.685 0 42.835-19.15 42.835-42.835v-469.165c0-23.685-19.15-42.835-42.835-42.835h-247.433c-23.685 0-42.835 19.15-42.835 42.835v144.63h-357.795v-144.63c0-23.685-19.15-42.835-42.835-42.835h-247.433c-23.685 0-42.835 19.15-42.835 42.835v469.165c0 23.685 19.15 42.835 42.835 42.835zM938.331 605.732h-852.661v-383.496h161.764v144.63c0 23.685 19.15 42.835 42.835 42.835h443.465c23.685 0 42.835-19.15 42.835-42.835v-144.63h161.764v383.496zM885.417 512c0-24.77-20.080-44.85-44.85-44.85s-44.85 20.080-44.85 44.85c0 24.77 20.080 44.85 44.85 44.85s44.85-20.080 44.85-44.85zM333.102 691.402h357.795v182.929h-357.795v-182.929zM733.732 605.732h-486.299v354.268h529.134v-354.268h-42.835zM333.102 21.669h357.795v302.362h-357.795v-302.362zM733.732-64h-486.299v473.701h529.134v-473.701h-42.835zM392.567 273.134h238.866v-85.165h-238.866z" />
<glyph unicode="&#xe94f;" glyph-name="question" d="M512 960c282.709 0 512-189.48 512-422.803 0-130.016-65.008-227.78-161.26-308.409l-350.74-292.787v178.394c-282.709 0-512 189.48-512 422.803s229.291 422.803 512 422.803zM482.268 200.063l114.898 0.504 1.512-80.63c130.52 107.843 340.157 232.819 340.157 416.252 0 186.457-191.496 338.142-427.339 338.142-236.346 0-427.843-151.685-427.843-338.142 0-200.063 216.693-336.126 398.614-336.126zM559.37 359.811c0-30.058-24.367-54.425-54.425-54.425s-54.425 24.367-54.425 54.425c0 30.058 24.367 54.425 54.425 54.425s54.425-24.367 54.425-54.425zM545.26 468.157c-19.15 0-49.89 0-84.157 0-2.52 56.441 7.559 79.118 26.205 95.244 31.748 27.213 58.457 45.858 72.567 60.976 10.583 11.591 13.606 26.709 12.598 42.331-5.039 68.535-134.551 22.677-160.252 6.551l-33.26 68.031c79.118 46.362 162.772 56.441 228.283 24.189 45.858-22.677 59.465-61.984 57.449-106.835-2.016-45.858-35.276-85.669-94.236-123.969-25.197-16.126-25.197-37.795-25.197-66.52z" />
<glyph unicode="&#xe950;" glyph-name="realty" d="M429.858 547.78l-430.362-430.362-0.504-90.205c-0.504-57.953 34.268-92.724 92.22-92.22l90.205 1.008 64 64 1.512 100.787 12.598 12.094 100.787 1.512 32.756 33.26 1.512 100.787 12.094 12.094 100.787 1.512 104.315 103.811c107.843-39.307 233.827-15.622 320 71.055 119.433 118.929 119.433 311.937 0 430.866-118.929 118.929-311.937 118.929-430.866 0-86.677-86.677-110.362-212.157-71.055-320zM446.488 490.835l17.638-17.638-393.071-393.071-17.638 17.638 393.071 393.071zM842.583 778.079c34.268-34.268 34.268-90.205 0-124.472-34.772-34.772-90.709-34.772-124.976 0-34.268 34.268-34.268 90.205 0 124.472 34.268 34.772 90.205 34.772 124.976 0z" />
<glyph unicode="&#xe951;" glyph-name="realtylist" d="M0 101.859h158.648v-165.859h-158.648zM338.93 94.648h685.070v-158.648h-685.070zM0 527.324h158.648v-158.648h-158.648zM338.93 527.324h685.070v-158.648h-685.070zM0 960h158.648v-158.648h-158.648zM338.93 960h685.070v-158.648h-685.070z" />
<glyph unicode="&#xe952;" glyph-name="redact" d="M166.4 349.867l-115.2-290.133-51.2-64 64-64 59.733 55.467 298.667 119.467 605.867 610.133-256 247.467-605.867-610.133zM320 192l-64 64 520.533 524.8 64-64-520.533-524.8z" />
<glyph unicode="&#xe953;" glyph-name="redactnew" d="M298.667 68.267l-166.4 166.4c-17.067 17.067-25.6 38.4-25.6 59.733s8.533 42.667 25.6 59.733v0 0l584.533 580.267c17.067 17.067 38.4 25.6 59.733 25.6s42.667-8.533 59.733-25.6l166.4-166.4c17.067-17.067 25.6-38.4 25.6-59.733s-8.533-42.667-25.6-59.733l-584.533-580.267c-17.067-17.067-38.4-25.6-59.733-25.6s-42.667 8.533-59.733 25.6zM196.267 294.4l162.133-162.133 580.267 576-162.133 162.133-580.267-576zM102.4 320l490.667 486.4c17.067 17.067 42.667 17.067 59.733 0l221.867-226.133c17.067-17.067 17.067-42.667 0-59.733l-494.933-490.667c-4.267-4.267-12.8-8.533-21.333-12.8l-307.2-85.333c-21.333-4.267-46.933 8.533-51.2 29.867-4.267 8.533 0 17.067 0 21.333v0l42.667 153.6v4.267l42.667 153.6c0 8.533 4.267 12.8 12.8 17.067zM622.933 716.8l-456.533-452.267-38.4-145.067v-4.267l-21.333-81.067 226.133 64 456.533 452.267-162.133 162.133z" />
<glyph unicode="&#xe954;" glyph-name="reserv" d="M68.031 263.055l145.638 674.772h593.638l-150.677-700.976-83.654 17.638 128.504 598.173h-419.276l-130.52-607.244zM246.425 937.827h506.457c23.685 0 42.835-19.15 42.835-42.835 0-4.031-0.504-7.559-1.512-11.591l-201.071-934.299c-4.031-20.157-22.173-33.764-41.827-33.764v0h-506.457c-23.181 0-42.331 19.15-42.331 42.835 0 4.031 0.504 7.559 1.512 11.591l201.071 934.299c4.031 20.157 21.669 33.764 41.323 33.764v0zM700.472 852.661h-419.276l-183.433-852.157h419.276l183.433 852.157zM589.606 111.874l336.63-0.504-156.724 750.866c-5.543 7.559-9.071 17.134-8.567 27.213l0.504 48.882 84.661-0.504v-31.748c1.512-3.024 2.52-6.551 3.528-10.079l170.835-818.394c0.504-3.024 0.504-6.047 0.504-8.567 0-23.685-18.646-42.835-42.331-42.835l-389.039 0.504v85.165zM304.378 618.835h140.598c154.205-11.087 123.465-182.929 13.606-230.299l50.394-130.52h-89.701l-45.858 118.425h-37.291l-26.709-118.425h-78.614l73.575 360.315v0.504zM453.543 380.472l-26.205 68.031c24.189-2.016 69.039 77.102 17.638 85.165h-73.071l-19.15-85.165h74.583l26.205-68.031z" />
</font>
</defs>
</svg>
